  0
SECTION
  2
HEADER
  9
$ACADVER
  1
AC1015
  9
$ACADMAINTVER
 70
     6
  9
$DWGCODEPAGE
  3
ANSI_1252
  9
$INSBASE
 10
0.0
 20
0.0
 30
0.0
  9
$EXTMIN
 10
-1141.355537633785
 20
7.3163025709781
 30
0.0
  9
$EXTMAX
 10
-320.604066877292
 20
334.135980125651
 30
0.0
  9
$LIMMIN
 10
0.0
 20
0.0
  9
$LIMMAX
 10
12.0
 20
9.0
  9
$ORTHOMODE
 70
     0
  9
$REGENMODE
 70
     1
  9
$FILLMODE
 70
     1
  9
$QTEXTMODE
 70
     0
  9
$MIRRTEXT
 70
     1
  9
$LTSCALE
 40
1.0
  9
$ATTMODE
 70
     1
  9
$TEXTSIZE
 40
0.2
  9
$TRACEWID
 40
0.05
  9
$TEXTSTYLE
  7
Standard
  9
$CLAYER
  8
0
  9
$CELTYPE
  6
ByLayer
  9
$CECOLOR
 62
   256
  9
$CELTSCALE
 40
1.0
  9
$DISPSILH
 70
     0
  9
$DIMSCALE
 40
1.0
  9
$DIMASZ
 40
0.18
  9
$DIMEXO
 40
0.0625
  9
$DIMDLI
 40
0.38
  9
$DIMRND
 40
0.0
  9
$DIMDLE
 40
0.0
  9
$DIMEXE
 40
0.18
  9
$DIMTP
 40
0.0
  9
$DIMTM
 40
0.0
  9
$DIMTXT
 40
0.18
  9
$DIMCEN
 40
0.09
  9
$DIMTSZ
 40
0.0
  9
$DIMTOL
 70
     0
  9
$DIMLIM
 70
     0
  9
$DIMTIH
 70
     1
  9
$DIMTOH
 70
     1
  9
$DIMSE1
 70
     0
  9
$DIMSE2
 70
     0
  9
$DIMTAD
 70
     0
  9
$DIMZIN
 70
     0
  9
$DIMBLK
  1

  9
$DIMASO
 70
     1
  9
$DIMSHO
 70
     1
  9
$DIMPOST
  1

  9
$DIMAPOST
  1

  9
$DIMALT
 70
     0
  9
$DIMALTD
 70
     2
  9
$DIMALTF
 40
25.4
  9
$DIMLFAC
 40
1.0
  9
$DIMTOFL
 70
     0
  9
$DIMTVP
 40
0.0
  9
$DIMTIX
 70
     0
  9
$DIMSOXD
 70
     0
  9
$DIMSAH
 70
     0
  9
$DIMBLK1
  1

  9
$DIMBLK2
  1

  9
$DIMSTYLE
  2
Standard
  9
$DIMCLRD
 70
     0
  9
$DIMCLRE
 70
     0
  9
$DIMCLRT
 70
     0
  9
$DIMTFAC
 40
1.0
  9
$DIMGAP
 40
0.09
  9
$DIMJUST
 70
     0
  9
$DIMSD1
 70
     0
  9
$DIMSD2
 70
     0
  9
$DIMTOLJ
 70
     1
  9
$DIMTZIN
 70
     0
  9
$DIMALTZ
 70
     0
  9
$DIMALTTZ
 70
     0
  9
$DIMUPT
 70
     0
  9
$DIMDEC
 70
     4
  9
$DIMTDEC
 70
     4
  9
$DIMALTU
 70
     2
  9
$DIMALTTD
 70
     2
  9
$DIMTXSTY
  7
Standard
  9
$DIMAUNIT
 70
     0
  9
$DIMADEC
 70
     0
  9
$DIMALTRND
 40
0.0
  9
$DIMAZIN
 70
     0
  9
$DIMDSEP
 70
    46
  9
$DIMATFIT
 70
     3
  9
$DIMFRAC
 70
     0
  9
$DIMLDRBLK
  1

  9
$DIMLUNIT
 70
     2
  9
$DIMLWD
 70
    -2
  9
$DIMLWE
 70
    -2
  9
$DIMTMOVE
 70
     0
  9
$LUNITS
 70
     2
  9
$LUPREC
 70
     4
  9
$SKETCHINC
 40
0.1
  9
$FILLETRAD
 40
0.5
  9
$AUNITS
 70
     0
  9
$AUPREC
 70
     0
  9
$MENU
  1
.
  9
$ELEVATION
 40
0.0
  9
$PELEVATION
 40
0.0
  9
$THICKNESS
 40
0.0
  9
$LIMCHECK
 70
     0
  9
$CHAMFERA
 40
0.5
  9
$CHAMFERB
 40
0.5
  9
$CHAMFERC
 40
1.0
  9
$CHAMFERD
 40
0.0
  9
$SKPOLY
 70
     0
  9
$TDCREATE
 40
2457372.473320972
  9
$TDUCREATE
 40
2457372.431654306
  9
$TDUPDATE
 40
2457372.473320984
  9
$TDUUPDATE
 40
2457372.431654317
  9
$TDINDWG
 40
0.0000000116
  9
$TDUSRTIMER
 40
0.0000000116
  9
$USRTIMER
 70
     1
  9
$ANGBASE
 50
0.0
  9
$ANGDIR
 70
     0
  9
$PDMODE
 70
     0
  9
$PDSIZE
 40
0.0
  9
$PLINEWID
 40
0.0
  9
$SPLFRAME
 70
     0
  9
$SPLINETYPE
 70
     6
  9
$SPLINESEGS
 70
     8
  9
$HANDSEED
  5
2F2
  9
$SURFTAB1
 70
     6
  9
$SURFTAB2
 70
     6
  9
$SURFTYPE
 70
     6
  9
$SURFU
 70
     6
  9
$SURFV
 70
     6
  9
$UCSBASE
  2

  9
$UCSNAME
  2

  9
$UCSORG
 10
0.0
 20
0.0
 30
0.0
  9
$UCSXDIR
 10
1.0
 20
0.0
 30
0.0
  9
$UCSYDIR
 10
0.0
 20
1.0
 30
0.0
  9
$UCSORTHOREF
  2

  9
$UCSORTHOVIEW
 70
     0
  9
$UCSORGTOP
 10
0.0
 20
0.0
 30
0.0
  9
$UCSORGBOTTOM
 10
0.0
 20
0.0
 30
0.0
  9
$UCSORGLEFT
 10
0.0
 20
0.0
 30
0.0
  9
$UCSORGRIGHT
 10
0.0
 20
0.0
 30
0.0
  9
$UCSORGFRONT
 10
0.0
 20
0.0
 30
0.0
  9
$UCSORGBACK
 10
0.0
 20
0.0
 30
0.0
  9
$PUCSBASE
  2

  9
$PUCSNAME
  2

  9
$PUCSORG
 10
0.0
 20
0.0
 30
0.0
  9
$PUCSXDIR
 10
1.0
 20
0.0
 30
0.0
  9
$PUCSYDIR
 10
0.0
 20
1.0
 30
0.0
  9
$PUCSORTHOREF
  2

  9
$PUCSORTHOVIEW
 70
     0
  9
$PUCSORGTOP
 10
0.0
 20
0.0
 30
0.0
  9
$PUCSORGBOTTOM
 10
0.0
 20
0.0
 30
0.0
  9
$PUCSORGLEFT
 10
0.0
 20
0.0
 30
0.0
  9
$PUCSORGRIGHT
 10
0.0
 20
0.0
 30
0.0
  9
$PUCSORGFRONT
 10
0.0
 20
0.0
 30
0.0
  9
$PUCSORGBACK
 10
0.0
 20
0.0
 30
0.0
  9
$USERI1
 70
     0
  9
$USERI2
 70
     0
  9
$USERI3
 70
     0
  9
$USERI4
 70
     0
  9
$USERI5
 70
     0
  9
$USERR1
 40
17.0
  9
$USERR2
 40
0.0
  9
$USERR3
 40
0.0
  9
$USERR4
 40
0.0
  9
$USERR5
 40
0.0
  9
$WORLDVIEW
 70
     1
  9
$SHADEDGE
 70
     3
  9
$SHADEDIF
 70
    70
  9
$TILEMODE
 70
     1
  9
$MAXACTVP
 70
    64
  9
$PINSBASE
 10
0.0
 20
0.0
 30
0.0
  9
$PLIMCHECK
 70
     0
  9
$PEXTMIN
 10
1.00000000000000E+20
 20
1.00000000000000E+20
 30
1.00000000000000E+20
  9
$PEXTMAX
 10
-1.00000000000000E+20
 20
-1.00000000000000E+20
 30
-1.00000000000000E+20
  9
$PLIMMIN
 10
0.0
 20
0.0
  9
$PLIMMAX
 10
12.0
 20
9.0
  9
$UNITMODE
 70
     0
  9
$VISRETAIN
 70
     1
  9
$PLINEGEN
 70
     0
  9
$PSLTSCALE
 70
     1
  9
$TREEDEPTH
 70
  3020
  9
$CMLSTYLE
  2
Standard
  9
$CMLJUST
 70
     0
  9
$CMLSCALE
 40
1.0
  9
$PROXYGRAPHICS
 70
     1
  9
$MEASUREMENT
 70
     1
  9
$CELWEIGHT
370
    -1
  9
$ENDCAPS
280
     0
  9
$JOINSTYLE
280
     0
  9
$LWDISPLAY
290
     0
  9
$INSUNITS
 70
     1
  9
$HYPERLINKBASE
  1

  9
$STYLESHEET
  1

  9
$XEDIT
290
     1
  9
$CEPSNTYPE
380
     0
  9
$PSTYLEMODE
290
     1
  9
$FINGERPRINTGUID
  2
{72C21DAF-7CF5-409B-A007-C64D16AD728A}
  9
$VERSIONGUID
  2
{FAEB1C32-E019-11D5-929B-00C0DF256EC4}
  9
$EXTNAMES
290
     1
  9
$PSVPSCALE
 40
0.0
  9
$OLESTARTUP
290
     0
  0
ENDSEC
  0
SECTION
  2
CLASSES
  0
CLASS
  1
ACDBDICTIONARYWDFLT
  2
AcDbDictionaryWithDefault
  3
ObjectDBX Classes
 90
        0
280
     0
281
     0
  0
CLASS
  1
VISUALSTYLE
  2
AcDbVisualStyle
  3
ObjectDBX Classes
 90
     4095
280
     0
281
     0
  0
CLASS
  1
MATERIAL
  2
AcDbMaterial
  3
ObjectDBX Classes
 90
     1153
280
     0
281
     0
  0
CLASS
  1
SCALE
  2
AcDbScale
  3
ObjectDBX Classes
 90
     1153
280
     0
281
     0
  0
CLASS
  1

  2
exOdDbSpline
  3

 90
        0
280
     0
281
     1
  0
CLASS
  1

  2
exOdDbCircle
  3

 90
        0
280
     0
281
     1
  0
CLASS
  1
DICTIONARYVAR
  2
AcDbDictionaryVar
  3
ObjectDBX Classes
 90
        0
280
     0
281
     0
  0
CLASS
  1
ACDBPLACEHOLDER
  2
AcDbPlaceHolder
  3
ObjectDBX Classes
 90
        0
280
     0
281
     0
  0
CLASS
  1
LAYOUT
  2
AcDbLayout
  3
ObjectDBX Classes
 90
        0
280
     0
281
     0
  0
ENDSEC
  0
SECTION
  2
TABLES
  0
TABLE
  2
VPORT
  5
8
330
0
100
AcDbSymbolTable
 70
     1
  0
VPORT
  5
29
330
8
100
AcDbSymbolTableRecord
100
AcDbViewportTableRecord
  2
*Active
 70
     0
 10
0.0
 20
0.0
 11
1.0
 21
1.0
 12
-730.9798022555385
 22
170.7261413483145
 13
0.0
 23
0.0
 14
0.5
 24
0.5
 15
0.5
 25
0.5
 16
0.0
 26
0.0
 36
1.0
 17
0.0
 27
0.0
 37
0.0
 40
563.3235721292477
 41
1.60267857142857
 42
50.0
 43
0.0
 44
0.0
 50
0.0
 51
0.0
 71
     0
 72
   100
 73
     1
 74
     3
 75
     0
 76
     0
 77
     0
 78
     0
281
     0
 65
     1
110
0.0
120
0.0
130
0.0
111
1.0
121
0.0
131
0.0
112
0.0
122
1.0
132
0.0
 79
     0
146
0.0
  0
ENDTAB
  0
TABLE
  2
LTYPE
  5
5
330
0
100
AcDbSymbolTable
 70
     8
  0
LTYPE
  5
14
330
5
100
AcDbSymbolTableRecord
100
AcDbLinetypeTableRecord
  2
ByBlock
 70
     0
  3

 72
    65
 73
     0
 40
0.0
  0
LTYPE
  5
15
330
5
100
AcDbSymbolTableRecord
100
AcDbLinetypeTableRecord
  2
ByLayer
 70
     0
  3

 72
    65
 73
     0
 40
0.0
  0
LTYPE
  5
16
330
5
100
AcDbSymbolTableRecord
100
AcDbLinetypeTableRecord
  2
Continuous
 70
     0
  3
Solid line
 72
    65
 73
     0
 40
0.0
  0
LTYPE
  5
3F
330
5
100
AcDbSymbolTableRecord
100
AcDbLinetypeTableRecord
  2
DASHED
 70
     0
  3
Dashed
 72
    65
 73
     2
 40
15.0
 49
7.0
 74
     0
 49
-8.0
 74
     0
  0
LTYPE
  5
40
330
5
100
AcDbSymbolTableRecord
100
AcDbLinetypeTableRecord
  2
DOTTED
 70
     0
  3
Dotted
 72
    65
 73
     2
 40
1.0
 49
0.0
 74
     0
 49
-1.0
 74
     0
  0
LTYPE
  5
41
330
5
100
AcDbSymbolTableRecord
100
AcDbLinetypeTableRecord
  2
DOT_CENTER
 70
     0
  3
Dot_Center
 72
    65
 73
     4
 40
14.0
 49
12.0
 74
     0
 49
-1.0
 74
     0
 49
0.0
 74
     0
 49
-1.0
 74
     0
  0
LTYPE
  5
42
330
5
100
AcDbSymbolTableRecord
100
AcDbLinetypeTableRecord
  2
LONG_DASHED
 70
     0
  3
Long_Dashed
 72
    65
 73
     2
 40
15.0
 49
10.0
 74
     0
 49
-5.0
 74
     0
  0
LTYPE
  5
43
330
5
100
AcDbSymbolTableRecord
100
AcDbLinetypeTableRecord
  2
DASH_CENTER
 70
     0
  3
Dash_Center
 72
    65
 73
     4
 40
14.0
 49
11.0
 74
     0
 49
-1.0
 74
     0
 49
1.0
 74
     0
 49
-1.0
 74
     0
  0
LTYPE
  5
44
330
5
100
AcDbSymbolTableRecord
100
AcDbLinetypeTableRecord
  2
PHANTOM
 70
     0
  3
Phantom
 72
    65
 73
     6
 40
13.0
 49
10.0
 74
     0
 49
-1.0
 74
     0
 49
0.0
 74
     0
 49
-1.0
 74
     0
 49
0.0
 74
     0
 49
-1.0
 74
     0
  0
LTYPE
  5
45
330
5
100
AcDbSymbolTableRecord
100
AcDbLinetypeTableRecord
  2
CENTER_DASH_DASH
 70
     0
  3
Center_Dash_Dash
 72
    65
 73
     6
 40
14.0
 49
9.0
 74
     0
 49
-1.0
 74
     0
 49
1.0
 74
     0
 49
-1.0
 74
     0
 49
1.0
 74
     0
 49
-1.0
 74
     0
  0
ENDTAB
  0
TABLE
  2
LAYER
  5
2
330
0
100
AcDbSymbolTable
 70
     2
  0
LAYER
  5
10
330
2
100
AcDbSymbolTableRecord
100
AcDbLayerTableRecord
  2
0
 70
     0
 62
     7
  6
Continuous
370
    -3
390
F
  0
LAYER
  5
46
330
2
100
AcDbSymbolTableRecord
100
AcDbLayerTableRecord
  2
1
 70
     0
 62
     7
  6
Continuous
370
    -3
390
F
  0
ENDTAB
  0
TABLE
  2
STYLE
  5
3
330
0
100
AcDbSymbolTable
 70
     3
  0
STYLE
  5
11
330
3
100
AcDbSymbolTableRecord
100
AcDbTextStyleTableRecord
  2
Standard
 70
     0
 40
0.0
 41
1.0
 50
0.0
 71
     0
 42
0.2
  3
txt
  4

  0
STYLE
  5
1E9
330
3
100
AcDbSymbolTableRecord
100
AcDbTextStyleTableRecord
  2
CONVERTER_11
 70
     0
 40
0.0
 41
0.9
 50
0.0
 71
     0
 42
0.2
  3
txt.shx
  4

  0
STYLE
  5
1F1
330
3
100
AcDbSymbolTableRecord
100
AcDbTextStyleTableRecord
  2
CONVERTER_12
 70
     0
 40
0.0
 41
0.72
 50
0.0
 71
     0
 42
0.2
  3
txt.shx
  4

  0
ENDTAB
  0
TABLE
  2
VIEW
  5
6
330
0
100
AcDbSymbolTable
 70
     0
  0
ENDTAB
  0
TABLE
  2
UCS
  5
7
330
0
100
AcDbSymbolTable
 70
     0
  0
ENDTAB
  0
TABLE
  2
APPID
  5
9
330
0
100
AcDbSymbolTable
 70
     1
  0
APPID
  5
12
330
9
100
AcDbSymbolTableRecord
100
AcDbRegAppTableRecord
  2
ACAD
 70
     0
  0
ENDTAB
  0
TABLE
  2
DIMSTYLE
  5
A
330
0
100
AcDbSymbolTable
 70
    12
100
AcDbDimStyleTable
  0
DIMSTYLE
105
27
330
A
100
AcDbSymbolTableRecord
100
AcDbDimStyleTableRecord
  2
Standard
 70
     0
340
11
  0
DIMSTYLE
105
1F5
102
{ACAD_REACTORS
330
1F6
102
}
330
A
100
AcDbSymbolTableRecord
100
AcDbDimStyleTableRecord
  2
ME10_DIM_10
 70
     0
  3
{\Fgdt;n}<>mm
 41
7.0
 42
0.0
 44
2.0
 73
     0
 74
     0
 77
     1
 78
     8
140
7.0
147
2.0
172
     1
173
     1
174
     1
175
     1
176
     4
177
     4
178
     2
271
     1
340
1F1
  0
DIMSTYLE
105
200
102
{ACAD_REACTORS
330
201
102
}
330
A
100
AcDbSymbolTableRecord
100
AcDbDimStyleTableRecord
  2
ME10_DIM_11
 70
     0
  3
<>mm
 41
7.0
 42
0.0
 44
2.0
 73
     0
 74
     0
 77
     1
 78
     8
140
7.0
147
2.0
172
     1
173
     1
174
     1
175
     1
176
     4
177
     4
178
     2
271
     2
340
1F1
  0
DIMSTYLE
105
20B
102
{ACAD_REACTORS
330
20C
102
}
330
A
100
AcDbSymbolTableRecord
100
AcDbDimStyleTableRecord
  2
ME10_DIM_12
 70
     0
  3
mm
 41
7.0
 42
0.0
 44
2.0
 73
     0
 74
     0
 77
     1
 78
     8
140
7.0
147
2.0
172
     1
173
     1
174
     1
175
     1
176
     4
177
     4
178
     2
271
     2
340
1F1
  0
DIMSTYLE
105
216
102
{ACAD_REACTORS
330
217
102
}
330
A
100
AcDbSymbolTableRecord
100
AcDbDimStyleTableRecord
  2
ME10_DIM_13
 70
     0
  3
mm
 41
7.0
 42
0.0
 44
2.0
 73
     0
 74
     0
 77
     1
 78
     8
140
7.0
147
2.0
172
     1
173
     1
174
     1
175
     1
176
     4
177
     4
178
     2
271
     2
340
1F1
  0
DIMSTYLE
105
281
102
{ACAD_REACTORS
330
282
102
}
330
A
100
AcDbSymbolTableRecord
100
AcDbDimStyleTableRecord
  2
ME10_DIM_14
 70
     0
  3
<>mm
 41
7.0
 42
0.0
 44
2.0
 73
     0
 74
     0
 77
     1
 78
     8
140
7.0
147
2.0
172
     1
173
     1
174
     1
175
     1
176
     4
177
     4
178
     2
271
     2
340
1F1
  0
DIMSTYLE
105
28D
102
{ACAD_REACTORS
330
28E
102
}
330
A
100
AcDbSymbolTableRecord
100
AcDbDimStyleTableRecord
  2
ME10_DIM_15
 70
     0
  3
mm
 41
7.0
 42
0.0
 44
2.0
 73
     0
 74
     0
 77
     1
 78
     8
140
7.0
147
2.0
172
     1
173
     1
174
     1
175
     1
176
     4
177
     4
178
     2
271
     2
340
1F1
  0
DIMSTYLE
105
298
102
{ACAD_REACTORS
330
299
102
}
330
A
100
AcDbSymbolTableRecord
100
AcDbDimStyleTableRecord
  2
ME10_DIM_16
 70
     0
  3
mm
 41
7.0
 42
0.0
 44
2.0
 73
     0
 74
     0
 77
     1
 78
     8
140
7.0
147
2.0
172
     1
173
     1
174
     1
175
     1
176
     4
177
     4
178
     2
271
     2
340
1F1
  0
DIMSTYLE
105
2A3
102
{ACAD_REACTORS
330
2A4
102
}
330
A
100
AcDbSymbolTableRecord
100
AcDbDimStyleTableRecord
  2
ME10_DIM_17
 70
     0
  3
mm
 41
7.0
 42
0.0
 44
2.0
 73
     0
 74
     0
 77
     1
 78
     8
140
7.0
147
2.0
172
     1
173
     1
174
     1
175
     1
176
     4
177
     4
178
     2
271
     2
340
1F1
  0
DIMSTYLE
105
2AE
102
{ACAD_REACTORS
330
2AF
102
}
330
A
100
AcDbSymbolTableRecord
100
AcDbDimStyleTableRecord
  2
ME10_DIM_18
 70
     0
  3
mm
 41
7.0
 42
0.0
 44
2.0
 73
     0
 74
     0
 77
     1
 78
     8
140
7.0
147
2.0
172
     1
173
     1
174
     1
175
     1
176
     4
177
     4
178
     2
271
     2
340
1F1
  0
DIMSTYLE
105
2B9
102
{ACAD_REACTORS
330
2BA
102
}
330
A
100
AcDbSymbolTableRecord
100
AcDbDimStyleTableRecord
  2
ME10_DIM_19
 70
     0
 41
7.0
 42
0.0
 44
2.0
 73
     0
 74
     0
 77
     1
 78
     8
140
3.5
147
2.0
172
     1
173
     1
174
     1
175
     1
176
     4
177
     4
178
     2
271
     2
340
1F1
  0
DIMSTYLE
105
2C4
102
{ACAD_REACTORS
330
2C5
102
}
330
A
100
AcDbSymbolTableRecord
100
AcDbDimStyleTableRecord
  2
ME10_DIM_20
 70
     0
 41
7.0
 42
0.0
 44
2.0
 73
     0
 74
     0
 77
     1
 78
     8
140
3.5
147
2.0
172
     1
173
     1
174
     1
175
     1
176
     4
177
     4
178
     2
271
     2
340
1F1
  0
ENDTAB
  0
TABLE
  2
BLOCK_RECORD
  5
1
330
0
100
AcDbSymbolTable
 70
    25
  0
BLOCK_RECORD
  5
1F
330
1
100
AcDbSymbolTableRecord
100
AcDbBlockTableRecord
  2
*Model_Space
340
22
  0
BLOCK_RECORD
  5
1B
330
1
100
AcDbSymbolTableRecord
100
AcDbBlockTableRecord
  2
*Paper_Space
340
1E
  0
BLOCK_RECORD
  5
23
330
1
100
AcDbSymbolTableRecord
100
AcDbBlockTableRecord
  2
*Paper_Space0
340
26
  0
BLOCK_RECORD
  5
47
330
1
100
AcDbSymbolTableRecord
100
AcDbBlockTableRecord
  2
0059_1509_0000_B
340
0
102
{BLKREFS
331
70
102
}
  0
BLOCK_RECORD
  5
4A
330
1
100
AcDbSymbolTableRecord
100
AcDbBlockTableRecord
  2
0059_1509_0000_A
340
0
102
{BLKREFS
331
71
102
}
  0
BLOCK_RECORD
  5
4D
330
1
100
AcDbSymbolTableRecord
100
AcDbBlockTableRecord
  2
0059_1509_0000
340
0
102
{BLKREFS
331
83
102
}
  0
BLOCK_RECORD
  5
74
330
1
100
AcDbSymbolTableRecord
100
AcDbBlockTableRecord
  2
0059_1500_0000
340
0
102
{BLKREFS
331
84
102
}
  0
BLOCK_RECORD
  5
77
330
1
100
AcDbSymbolTableRecord
100
AcDbBlockTableRecord
  2
0059_1501_0000
340
0
102
{BLKREFS
331
7E
102
}
  0
BLOCK_RECORD
  5
7A
330
1
100
AcDbSymbolTableRecord
100
AcDbBlockTableRecord
  2
0059_1502_0000__1
340
0
102
{BLKREFS
331
7F
102
}
  0
BLOCK_RECORD
  5
7D
330
1
100
AcDbSymbolTableRecord
100
AcDbBlockTableRecord
  2
0059_1502_9000__2
340
0
102
{BLKREFS
331
85
102
}
  0
BLOCK_RECORD
  5
82
330
1
100
AcDbSymbolTableRecord
100
AcDbBlockTableRecord
  2
0084_0085A__3
340
0
102
{BLKREFS
331
89
102
}
  0
BLOCK_RECORD
  5
88
330
1
100
AcDbSymbolTableRecord
100
AcDbBlockTableRecord
  2
Drfsicht1
340
0
102
{BLKREFS
331
9B
102
}
  0
BLOCK_RECORD
  5
8C
330
1
100
AcDbSymbolTableRecord
100
AcDbBlockTableRecord
  2
0059_1502_0000__4
340
0
102
{BLKREFS
331
90
102
}
  0
BLOCK_RECORD
  5
8F
330
1
100
AcDbSymbolTableRecord
100
AcDbBlockTableRecord
  2
0059_1502_9000__5
340
0
102
{BLKREFS
331
94
102
}
  0
BLOCK_RECORD
  5
93
330
1
100
AcDbSymbolTableRecord
100
AcDbBlockTableRecord
  2
0084_0085A__6
340
0
102
{BLKREFS
331
98
102
}
  0
BLOCK_RECORD
  5
97
330
1
100
AcDbSymbolTableRecord
100
AcDbBlockTableRecord
  2
Vordans1
340
0
102
{BLKREFS
331
9C
102
}
  0
BLOCK_RECORD
  5
1EB
330
1
100
AcDbSymbolTableRecord
100
AcDbBlockTableRecord
  2
*D14
340
0
  0
BLOCK_RECORD
  5
1F7
330
1
100
AcDbSymbolTableRecord
100
AcDbBlockTableRecord
  2
*D15
340
0
  0
BLOCK_RECORD
  5
202
330
1
100
AcDbSymbolTableRecord
100
AcDbBlockTableRecord
  2
*D16
340
0
  0
BLOCK_RECORD
  5
20D
330
1
100
AcDbSymbolTableRecord
100
AcDbBlockTableRecord
  2
*D17
340
0
  0
BLOCK_RECORD
  5
278
330
1
100
AcDbSymbolTableRecord
100
AcDbBlockTableRecord
  2
*D18
340
0
  0
BLOCK_RECORD
  5
283
330
1
100
AcDbSymbolTableRecord
100
AcDbBlockTableRecord
  2
*D19
340
0
  0
BLOCK_RECORD
  5
28F
330
1
100
AcDbSymbolTableRecord
100
AcDbBlockTableRecord
  2
*D20
340
0
  0
BLOCK_RECORD
  5
29A
330
1
100
AcDbSymbolTableRecord
100
AcDbBlockTableRecord
  2
*D21
340
0
  0
BLOCK_RECORD
  5
2A5
330
1
100
AcDbSymbolTableRecord
100
AcDbBlockTableRecord
  2
*D22
340
0
  0
BLOCK_RECORD
  5
2B0
330
1
100
AcDbSymbolTableRecord
100
AcDbBlockTableRecord
  2
*D23
340
0
  0
BLOCK_RECORD
  5
2BB
330
1
100
AcDbSymbolTableRecord
100
AcDbBlockTableRecord
  2
*D24
340
0
  0
ENDTAB
  0
ENDSEC
  0
SECTION
  2
BLOCKS
  0
BLOCK
  5
20
330
1F
100
AcDbEntity
  8
0
100
AcDbBlockBegin
  2
*Model_Space
 70
     0
 10
0.0
 20
0.0
 30
0.0
  3
*Model_Space
  1

  0
ENDBLK
  5
21
330
1F
100
AcDbEntity
  8
0
100
AcDbBlockEnd
  0
BLOCK
  5
1C
330
1B
100
AcDbEntity
 67
     1
  8
0
100
AcDbBlockBegin
  2
*Paper_Space
 70
     0
 10
0.0
 20
0.0
 30
0.0
  3
*Paper_Space
  1

  0
ENDBLK
  5
1D
330
1B
100
AcDbEntity
 67
     1
  8
0
100
AcDbBlockEnd
  0
BLOCK
  5
24
330
23
100
AcDbEntity
  8
0
100
AcDbBlockBegin
  2
*Paper_Space0
 70
     0
 10
0.0
 20
0.0
 30
0.0
  3
*Paper_Space0
  1

  0
ENDBLK
  5
25
330
23
100
AcDbEntity
  8
0
100
AcDbBlockEnd
  0
BLOCK
  5
48
330
47
100
AcDbEntity
  8
0
100
AcDbBlockBegin
  2
0059_1509_0000_B
 70
     0
 10
-963.0515580339855
 20
222.0493282021988
 30
0.0
  3
0059_1509_0000_B
  1

  0
LINE
  5
9D
330
47
100
AcDbEntity
  8
0
  6
Continuous
 62
     1
100
AcDbLine
 10
-960.051558033985
 20
220.3760993501016
 30
0.0
 11
-960.0515580339851
 21
221.7957521386666
 31
0.0
  0
LINE
  5
9E
330
47
100
AcDbEntity
  8
0
  6
Continuous
 62
     1
100
AcDbLine
 10
-960.0515580339851
 20
221.7957521386666
 30
0.0
 11
-960.051558033985
 21
221.8062297077513
 31
0.0
  0
LINE
  5
9F
330
47
100
AcDbEntity
  8
0
  6
Continuous
 62
     1
100
AcDbLine
 10
-960.0515580339847
 20
220.0182478560186
 30
0.0
 11
-960.051558033985
 21
220.3760993501016
 31
0.0
  0
LINE
  5
A0
330
47
100
AcDbEntity
  8
0
  6
Continuous
 62
     1
100
AcDbLine
 10
-960.051558033985
 20
222.0493282021989
 30
0.0
 11
-960.051558033985
 21
221.949328202199
 31
0.0
  0
LINE
  5
A1
330
47
100
AcDbEntity
  8
0
  6
Continuous
 62
     1
100
AcDbLine
 10
-960.051558033985
 20
221.8062297077513
 30
0.0
 11
-960.051558033985
 21
221.949328202199
 31
0.0
  0
LINE
  5
A2
330
47
100
AcDbEntity
  8
0
  6
Continuous
 62
     1
100
AcDbLine
 10
-963.0515580339855
 20
222.0493282021988
 30
0.0
 11
-960.051558033985
 21
222.0493282021989
 31
0.0
  0
SPLINE
  5
A3
330
47
100
AcDbEntity
  8
0
  6
Continuous
 62
     1
100
AcDbSpline
210
0.0
220
0.0
230
1.0
 70
     8
 71
     3
 72
     9
 73
     5
 74
     3
 42
0.0000000001
 43
0.0000000001
 44
0.00000001
 40
0.0
 40
0.0
 40
0.0
 40
0.0
 40
1.499871751255843
 40
3.00065695077745
 40
3.00065695077745
 40
3.00065695077745
 40
3.00065695077745
 10
-960.0515580339851
 20
221.7957521386666
 30
0.0
 10
-960.5513941096389
 20
221.8067668572342
 30
0.0
 10
-961.5513706699039
 20
221.8288030025266
 30
0.0
 10
-962.5513941048828
 20
221.8485980216412
 30
0.0
 10
-963.0515580339857
 20
221.8584985441596
 30
0.0
 11
-960.0515580339851
 21
221.7957521386666
 31
0.0
 11
-961.5510779724909
 21
221.8282363538904
 31
0.0
 11
-963.0515580339857
 21
221.8584985441596
 31
0.0
  0
ENDBLK
  5
49
330
47
100
AcDbEntity
  8
0
100
AcDbBlockEnd
  0
BLOCK
  5
4B
330
4A
100
AcDbEntity
  8
0
100
AcDbBlockBegin
  2
0059_1509_0000_A
 70
     0
 10
-960.0515580339851
 20
221.949328202199
 30
0.0
  3
0059_1509_0000_A
  1

  0
LINE
  5
A4
330
4A
100
AcDbEntity
  8
0
  6
Continuous
 62
     1
100
AcDbLine
 10
-959.0341056275481
 20
130.1670879000147
 30
0.0
 11
-960.051558033985
 21
130.1493282021989
 31
0.0
  0
LINE
  5
A5
330
4A
100
AcDbEntity
  8
0
  6
Continuous
 62
     1
100
AcDbLine
 10
-958.051558033985
 20
132.5493282709047
 30
0.0
 11
-958.051558033985
 21
219.5493281334931
 31
0.0
  0
LINE
  5
A6
330
4A
100
AcDbEntity
  8
0
  6
Continuous
 62
     1
100
AcDbLine
 10
-958.051558033985
 20
219.5493281334931
 30
0.0
 11
-958.0515580339854
 21
220.9317208092268
 31
0.0
  0
LINE
  5
A7
330
4A
100
AcDbEntity
  8
0
  6
Continuous
 62
     1
100
AcDbLine
 10
-958.0515580339853
 20
131.166935595171
 30
0.0
 11
-958.051558033985
 21
132.5493282709047
 31
0.0
  0
LINE
  5
A8
330
4A
100
AcDbEntity
  8
0
  6
Continuous
 62
     1
100
AcDbLine
 10
-960.051558033985
 20
220.3760993501016
 30
0.0
 11
-960.0515580339851
 21
221.7957521386666
 31
0.0
  0
LINE
  5
A9
330
4A
100
AcDbEntity
  8
0
  6
Continuous
 62
     1
100
AcDbLine
 10
-960.0515580339851
 20
131.4716588484775
 30
0.0
 11
-960.0515580339847
 21
220.0182478560186
 31
0.0
  0
LINE
  5
AA
330
4A
100
AcDbEntity
  8
0
  6
Continuous
 62
     1
100
AcDbLine
 10
-960.0515580339851
 20
221.7957521386666
 30
0.0
 11
-960.051558033985
 21
221.8062297077513
 31
0.0
  0
LINE
  5
AB
330
4A
100
AcDbEntity
  8
0
  6
Continuous
 62
     1
100
AcDbLine
 10
-960.0515580339847
 20
220.0182478560186
 30
0.0
 11
-960.051558033985
 21
220.3760993501016
 31
0.0
  0
LINE
  5
AC
330
4A
100
AcDbEntity
  8
0
  6
Continuous
 62
     1
100
AcDbLine
 10
-960.051558033985
 20
130.1493282021989
 30
0.0
 11
-960.0515580339851
 21
131.4716588484775
 31
0.0
  0
LINE
  5
AD
330
4A
100
AcDbEntity
  8
0
  6
Continuous
 62
     1
100
AcDbLine
 10
-959.0341056275481
 20
221.9315685043831
 30
0.0
 11
-960.051558033985
 21
221.949328202199
 31
0.0
  0
LINE
  5
AE
330
4A
100
AcDbEntity
  8
0
  6
Continuous
 62
     1
100
AcDbLine
 10
-960.051558033985
 20
221.8062297077513
 30
0.0
 11
-960.051558033985
 21
221.949328202199
 31
0.0
  0
LINE
  5
AF
330
4A
100
AcDbEntity
  8
0
  6
Continuous
 62
     1
100
AcDbLine
 10
-952.051558033908
 20
215.2979484023966
 30
0.0
 11
-952.0515580339079
 21
215.5138086914596
 31
0.0
  0
LINE
  5
B0
330
4A
100
AcDbEntity
  8
0
  6
Continuous
 62
     3
100
AcDbLine
 10
-955.9817484081588
 20
132.5854569323126
 30
0.0
 11
-955.9817484081588
 21
219.2754635713511
 31
0.0
  0
LINE
  5
B1
330
4A
100
AcDbEntity
  8
0
  6
Continuous
 62
     3
100
AcDbLine
 10
-955.9817484081588
 20
219.2754635713511
 30
0.0
 11
-955.9817484081588
 21
219.5131994720852
 31
0.0
  0
LINE
  5
B2
330
4A
100
AcDbEntity
  8
0
  6
Continuous
 62
     1
100
AcDbLine
 10
-952.0515580339079
 20
136.5848477129381
 30
0.0
 11
-952.051558033908
 21
215.2979484023966
 31
0.0
  0
LINE
  5
B3
330
4A
100
AcDbEntity
  8
0
  6
Continuous
 62
     1
100
AcDbLine
 10
-955.9817484081588
 20
132.5854569323126
 30
0.0
 11
-958.051558033985
 21
132.5493282709047
 31
0.0
  0
LINE
  5
B4
330
4A
100
AcDbEntity
  8
0
  6
Continuous
 62
     3
100
AcDbLine
 10
-959.0341056275481
 20
130.1670879000147
 30
0.0
 11
-959.0341056275481
 21
221.9315685043831
 31
0.0
  0
LINE
  5
B5
330
4A
100
AcDbEntity
  8
0
  6
Continuous
 62
     1
100
AcDbLine
 10
-955.9817484081588
 20
219.5131994720852
 30
0.0
 11
-958.051558033985
 21
219.5493281334931
 31
0.0
  0
LINE
  5
B6
330
4A
100
AcDbEntity
  8
1
  6
DOT_CENTER
 62
     4
100
AcDbLine
 10
-953.9817484081564
 20
176.0493282021988
 30
0.0
 11
-960.0515580339874
 21
176.0493282021984
 31
0.0
  0
LINE
  5
B7
330
4A
100
AcDbEntity
  8
1
  6
DOT_CENTER
 62
     4
100
AcDbLine
 10
-957.0341056275481
 20
176.0493282021991
 30
0.0
 11
-962.051558033985
 21
176.0493282021991
 31
0.0
  0
ARC
  5
B8
330
4A
100
AcDbEntity
  8
0
  6
Continuous
 62
     1
100
AcDbCircle
 10
-956.0515580339079
 20
215.5138086914597
 30
0.0
 40
4.0
100
AcDbArc
 50
359.9999999999984
 51
88.99999999999984
  0
ARC
  5
B9
330
4A
100
AcDbEntity
  8
0
  6
Continuous
 62
     1
100
AcDbCircle
 10
-956.0515580339079
 20
136.5848477129382
 30
0.0
 40
4.000000000000024
100
AcDbArc
 50
271.0000000000002
 51
359.9999999999987
  0
ARC
  5
BA
330
4A
100
AcDbEntity
  8
0
  6
Continuous
 62
     1
100
AcDbCircle
 10
-959.0515580339854
 20
131.1669355951711
 30
0.0
 40
1.000000000000014
100
AcDbArc
 50
271.0000000000018
 51
359.9999999999935
  0
ARC
  5
BB
330
4A
100
AcDbEntity
  8
0
  6
Continuous
 62
     1
100
AcDbCircle
 10
-959.0515580339854
 20
220.9317208092268
 30
0.0
 40
1.0
100
AcDbArc
 50
0.0
 51
88.99999999999815
  0
ENDBLK
  5
4C
330
4A
100
AcDbEntity
  8
0
100
AcDbBlockEnd
  0
BLOCK
  5
72
330
4D
100
AcDbEntity
  8
0
100
AcDbBlockBegin
  2
0059_1509_0000
 70
     0
 10
-963.0515580339855
 20
222.0493282021988
 30
0.0
  3
0059_1509_0000
  1

  0
INSERT
  5
70
330
4D
100
AcDbEntity
  8
0
100
AcDbBlockReference
  2
0059_1509_0000_B
 10
-963.0515580339855
 20
222.0493282021988
 30
0.0
  0
INSERT
  5
71
330
4D
100
AcDbEntity
  8
0
100
AcDbBlockReference
  2
0059_1509_0000_A
 10
-960.0515580339851
 20
221.949328202199
 30
0.0
  0
ENDBLK
  5
73
330
4D
100
AcDbEntity
  8
0
100
AcDbBlockEnd
  0
BLOCK
  5
75
330
74
100
AcDbEntity
  8
0
100
AcDbBlockBegin
  2
0059_1500_0000
 70
     0
 10
-1069.451558034036
 20
285.0493282021988
 30
0.0
  3
0059_1500_0000
  1

  0
LINE
  5
BC
330
74
100
AcDbEntity
  8
0
  6
Continuous
 62
     1
100
AcDbLine
 10
-1067.951558034036
 20
94.52314560482327
 30
0.0
 11
-1069.451558034036
 21
94.54932820221549
 31
0.0
  0
LINE
  5
BD
330
74
100
AcDbEntity
  8
0
  6
Continuous
 62
     1
100
AcDbLine
 10
-1069.451558034036
 20
100.0493282021991
 30
0.0
 11
-1067.951558034036
 21
100.0231456048067
 31
0.0
  0
LINE
  5
BE
330
74
100
AcDbEntity
  8
0
  6
Continuous
 62
     1
100
AcDbLine
 10
-1069.451558034036
 20
94.54932820221549
 30
0.0
 11
-1069.451558034036
 21
100.0493282021991
 31
0.0
  0
LINE
  5
BF
330
74
100
AcDbEntity
  8
0
  6
Continuous
 62
     1
100
AcDbLine
 10
-1067.951558034036
 20
100.0231456048067
 30
0.0
 11
-1067.951558034036
 21
94.52314560482327
 31
0.0
  0
LINE
  5
C0
330
74
100
AcDbEntity
  8
0
  6
Continuous
 62
     1
100
AcDbLine
 10
-1067.951558034036
 20
84.57551079960794
 30
0.0
 11
-1067.951558034036
 21
94.52314560482327
 31
0.0
  0
LINE
  5
C1
330
74
100
AcDbEntity
  8
0
  6
Continuous
 62
     1
100
AcDbLine
 10
-1069.451558034036
 20
75.5493282021989
 30
0.0
 11
-1067.951558034036
 21
75.52314560480656
 31
0.0
  0
LINE
  5
C2
330
74
100
AcDbEntity
  8
0
  6
Continuous
 62
     1
100
AcDbLine
 10
-1069.451558034036
 20
75.5493282021989
 30
0.0
 11
-1069.451558034036
 21
84.5493282022156
 31
0.0
  0
LINE
  5
C3
330
74
100
AcDbEntity
  8
0
  6
Continuous
 62
     1
100
AcDbLine
 10
-1069.451558034036
 20
84.5493282022156
 30
0.0
 11
-1069.451558034036
 21
87.80866371812769
 31
0.0
  0
LINE
  5
C4
330
74
100
AcDbEntity
  8
0
  6
Continuous
 62
     1
100
AcDbLine
 10
-1069.451558034036
 20
87.80866371812769
 30
0.0
 11
-1069.451558034036
 21
88.049328202199
 31
0.0
  0
LINE
  5
C5
330
74
100
AcDbEntity
  8
0
  6
Continuous
 62
     1
100
AcDbLine
 10
-1067.951558034036
 20
84.57551079960794
 30
0.0
 11
-1069.451558034036
 21
84.5493282022156
 31
0.0
  0
LINE
  5
C6
330
74
100
AcDbEntity
  8
0
  6
Continuous
 62
     1
100
AcDbLine
 10
-1069.451558034036
 20
104.5519393660315
 30
0.0
 11
-1069.451558034036
 21
113.0056905398784
 31
0.0
  0
LINE
  5
C7
330
74
100
AcDbEntity
  8
0
  6
Continuous
 62
     1
100
AcDbLine
 10
-1069.451558034036
 20
88.28824105971236
 30
0.0
 11
-1069.451558034036
 21
94.54932820221549
 31
0.0
  0
LINE
  5
C8
330
74
100
AcDbEntity
  8
0
  6
Continuous
 62
     1
100
AcDbLine
 10
-1069.451558034036
 20
88.049328202199
 30
0.0
 11
-1069.451558034036
 21
88.28824105971236
 31
0.0
  0
LINE
  5
C9
330
74
100
AcDbEntity
  8
0
  6
Continuous
 62
     1
100
AcDbLine
 10
-1069.451558034036
 20
118.0224030203278
 30
0.0
 11
-1069.451558034036
 21
122.2676458760329
 31
0.0
  0
LINE
  5
CA
330
74
100
AcDbEntity
  8
0
  6
Continuous
 62
     1
100
AcDbLine
 10
-1069.451558034036
 20
100.0493282021991
 30
0.0
 11
-1069.451558034036
 21
104.5519393660315
 31
0.0
  0
LINE
  5
CB
330
74
100
AcDbEntity
  8
0
  6
Continuous
 62
     1
100
AcDbLine
 10
-1069.451558034036
 20
113.0056905398784
 30
0.0
 11
-1069.451558034036
 21
118.0224030203278
 31
0.0
  0
LINE
  5
CC
330
74
100
AcDbEntity
  8
0
  6
Continuous
 62
     1
100
AcDbLine
 10
-1067.951558034036
 20
67.02314560480656
 30
0.0
 11
-1067.951558034036
 21
75.52314560480656
 31
0.0
  0
LINE
  5
CD
330
74
100
AcDbEntity
  8
0
  6
Continuous
 62
     1
100
AcDbLine
 10
-1069.451558034036
 20
67.0493282021989
 30
0.0
 11
-1067.951558034036
 21
67.02314560480656
 31
0.0
  0
LINE
  5
CE
330
74
100
AcDbEntity
  8
0
  6
Continuous
 62
     1
100
AcDbLine
 10
-1069.451558034036
 20
68.0441900158306
 30
0.0
 11
-1069.451558034036
 21
75.5493282021989
 31
0.0
  0
LINE
  5
CF
330
74
100
AcDbEntity
  8
0
  6
Continuous
 62
     1
100
AcDbLine
 10
-1069.451558034036
 20
67.0493282021989
 30
0.0
 11
-1069.451558034036
 21
67.79677974363526
 31
0.0
  0
LINE
  5
D0
330
74
100
AcDbEntity
  8
0
  6
Continuous
 62
     1
100
AcDbLine
 10
-1069.451558034036
 20
67.79677974363526
 30
0.0
 11
-1069.451558034036
 21
68.0441900158306
 31
0.0
  0
LINE
  5
D1
330
74
100
AcDbEntity
  8
0
  6
Continuous
 62
     1
100
AcDbLine
 10
-1069.451558034036
 20
122.2676458760329
 30
0.0
 11
-1069.451558034036
 21
137.8610508070321
 31
0.0
  0
LINE
  5
D2
330
74
100
AcDbEntity
  8
0
  6
Continuous
 62
     1
100
AcDbLine
 10
-1069.451558034036
 20
138.2366575800906
 30
0.0
 11
-1069.451558034036
 21
142.5493282022155
 31
0.0
  0
LINE
  5
D3
330
74
100
AcDbEntity
  8
0
  6
Continuous
 62
     1
100
AcDbLine
 10
-1069.451558034036
 20
137.8610508070321
 30
0.0
 11
-1069.451558034036
 21
138.2366575800906
 31
0.0
  0
LINE
  5
D4
330
74
100
AcDbEntity
  8
0
  6
Continuous
 62
     1
100
AcDbLine
 10
-1069.451558034036
 20
164.5493282022155
 30
0.0
 11
-1069.451558034036
 21
175.6744319694368
 31
0.0
  0
LINE
  5
D5
330
74
100
AcDbEntity
  8
0
  6
Continuous
 62
     1
100
AcDbLine
 10
-1069.451558034036
 20
142.5493282022155
 30
0.0
 11
-1069.451558034036
 21
164.5493282022155
 31
0.0
  0
LINE
  5
D6
330
74
100
AcDbEntity
  8
0
  6
Continuous
 62
     1
100
AcDbLine
 10
-960.051558033985
 20
220.3760993501016
 30
0.0
 11
-960.0515580339851
 21
221.7957521386666
 31
0.0
  0
LINE
  5
D7
330
74
100
AcDbEntity
  8
0
  6
Continuous
 62
     1
100
AcDbLine
 10
-960.0515580339851
 20
131.4716588484775
 30
0.0
 11
-960.0515580339847
 21
220.0182478560186
 31
0.0
  0
LINE
  5
D8
330
74
100
AcDbEntity
  8
0
  6
Continuous
 62
     1
100
AcDbLine
 10
-960.0515580339851
 20
221.7957521386666
 30
0.0
 11
-960.051558033985
 21
221.8062297077513
 31
0.0
  0
LINE
  5
D9
330
74
100
AcDbEntity
  8
0
  6
Continuous
 62
     1
100
AcDbLine
 10
-960.0515580339847
 20
220.0182478560186
 30
0.0
 11
-960.051558033985
 21
220.3760993501016
 31
0.0
  0
LINE
  5
DA
330
74
100
AcDbEntity
  8
0
  6
Continuous
 62
     1
100
AcDbLine
 10
-960.051558033985
 20
130.1493282021989
 30
0.0
 11
-960.0515580339851
 21
131.4716588484775
 31
0.0
  0
LINE
  5
DB
330
74
100
AcDbEntity
  8
0
  6
Continuous
 62
     1
100
AcDbLine
 10
-963.0515580339855
 20
130.0493282021989
 30
0.0
 11
-960.051558033985
 21
130.0493282021989
 31
0.0
  0
LINE
  5
DC
330
74
100
AcDbEntity
  8
0
  6
Continuous
 62
     1
100
AcDbLine
 10
-960.051558033985
 20
130.1493282021989
 30
0.0
 11
-960.051558033985
 21
130.0493282021989
 31
0.0
  0
LINE
  5
DD
330
74
100
AcDbEntity
  8
0
  6
Continuous
 62
     1
100
AcDbLine
 10
-1067.951558034036
 20
113.0056905398783
 30
0.0
 11
-1067.951558034036
 21
118.0224030203277
 31
0.0
  0
LINE
  5
DE
330
74
100
AcDbEntity
  8
0
  6
Continuous
 62
     3
100
AcDbLine
 10
-1068.954176015952
 20
122.2676458760329
 30
0.0
 11
-1068.954176015952
 21
142.5580100376353
 31
0.0
  0
LINE
  5
DF
330
74
100
AcDbEntity
  8
0
  6
Continuous
 62
     3
100
AcDbLine
 10
-1068.954176015952
 20
164.5406463667957
 30
0.0
 11
-1068.954176015952
 21
225.0580100376187
 31
0.0
  0
LINE
  5
E0
330
74
100
AcDbEntity
  8
0
  6
Continuous
 62
     3
100
AcDbLine
 10
-1068.954176015952
 20
105.0519325121552
 30
0.0
 11
-1068.954176015952
 21
113.0056905398783
 31
0.0
  0
LINE
  5
E1
330
74
100
AcDbEntity
  8
0
  6
Continuous
 62
     1
100
AcDbLine
 10
-1067.951558034037
 20
142.5755107996076
 30
0.0
 11
-1067.951558034037
 21
164.5231456048232
 31
0.0
  0
LINE
  5
E2
330
74
100
AcDbEntity
  8
0
  6
Continuous
 62
     1
100
AcDbLine
 10
-1067.951558034036
 20
118.0224030203277
 30
0.0
 11
-1067.951558034036
 21
122.2676458760329
 31
0.0
  0
LINE
  5
E3
330
74
100
AcDbEntity
  8
0
  6
Continuous
 62
     1
100
AcDbLine
 10
-1069.451558034036
 20
176.4249438584618
 30
0.0
 11
-1069.451558034036
 21
213.8619988227832
 31
0.0
  0
LINE
  5
E4
330
74
100
AcDbEntity
  8
0
  6
Continuous
 62
     1
100
AcDbLine
 10
-1069.451558034036
 20
214.237409545891
 30
0.0
 11
-1069.451558034036
 21
225.0493282021987
 31
0.0
  0
LINE
  5
E5
330
74
100
AcDbEntity
  8
0
  6
Continuous
 62
     1
100
AcDbLine
 10
-1069.451558034036
 20
213.8619988227832
 30
0.0
 11
-1069.451558034036
 21
214.237409545891
 31
0.0
  0
LINE
  5
E6
330
74
100
AcDbEntity
  8
0
  6
Continuous
 62
     1
100
AcDbLine
 10
-1069.451558034036
 20
175.6744319694368
 30
0.0
 11
-1069.451558034036
 21
176.4249438584618
 31
0.0
  0
LINE
  5
E7
330
74
100
AcDbEntity
  8
0
  6
Continuous
 62
     1
100
AcDbLine
 10
-1067.951558034037
 20
164.5231456048232
 30
0.0
 11
-1069.451558034036
 21
164.5493282022155
 31
0.0
  0
LINE
  5
E8
330
74
100
AcDbEntity
  8
0
  6
Continuous
 62
     1
100
AcDbLine
 10
-1067.951558034037
 20
142.5755107996076
 30
0.0
 11
-1069.451558034036
 21
142.5493282022155
 31
0.0
  0
LINE
  5
E9
330
74
100
AcDbEntity
  8
0
  6
Continuous
 62
     1
100
AcDbLine
 10
-1069.451558034036
 20
113.0056905398784
 30
0.0
 11
-1067.951558034036
 21
113.0056905398783
 31
0.0
  0
LINE
  5
EA
330
74
100
AcDbEntity
  8
0
  6
Continuous
 62
     1
100
AcDbLine
 10
-1069.451558034036
 20
118.0224030203278
 30
0.0
 11
-1067.951558034036
 21
118.0224030203277
 31
0.0
  0
LINE
  5
EB
330
74
100
AcDbEntity
  8
0
  6
Continuous
 62
     1
100
AcDbLine
 10
-1069.451558034036
 20
122.2676458760329
 30
0.0
 11
-1067.951558034036
 21
122.2676458760329
 31
0.0
  0
LINE
  5
EC
330
74
100
AcDbEntity
  8
0
  6
Continuous
 62
     1
100
AcDbLine
 10
-1069.451558034036
 20
273.5493282022155
 30
0.0
 11
-1069.451558034036
 21
272.5493282022154
 31
0.0
  0
LINE
  5
ED
330
74
100
AcDbEntity
  8
0
  6
Continuous
 62
     1
100
AcDbLine
 10
-1069.451558034036
 20
272.5493282022154
 30
0.0
 11
-1069.451558034036
 21
270.0493282021653
 31
0.0
  0
LINE
  5
EE
330
74
100
AcDbEntity
  8
0
  6
Continuous
 62
     1
100
AcDbLine
 10
-1069.451558034036
 20
238.478775499846
 30
0.0
 11
-1069.451558034036
 21
247.2508763569678
 31
0.0
  0
LINE
  5
EF
330
74
100
AcDbEntity
  8
0
  6
Continuous
 62
     1
100
AcDbLine
 10
-1069.451558034036
 20
247.2508763569678
 30
0.0
 11
-1069.451558034036
 21
254.6198825126209
 31
0.0
  0
LINE
  5
F0
330
74
100
AcDbEntity
  8
0
  6
Continuous
 62
     1
100
AcDbLine
 10
-1069.451558034036
 20
254.6198825126209
 30
0.0
 11
-1069.451558034036
 21
256.0493282021653
 31
0.0
  0
LINE
  5
F1
330
74
100
AcDbEntity
  8
0
  6
Continuous
 62
     1
100
AcDbLine
 10
-1069.451558034036
 20
225.0493282021987
 30
0.0
 11
-1069.451558034036
 21
237.0493282021988
 31
0.0
  0
LINE
  5
F2
330
74
100
AcDbEntity
  8
0
  6
Continuous
 62
     1
100
AcDbLine
 10
-1069.451558034036
 20
237.0493282021988
 30
0.0
 11
-1069.451558034036
 21
238.478775499846
 31
0.0
  0
LINE
  5
F3
330
74
100
AcDbEntity
  8
0
  6
Continuous
 62
     1
100
AcDbLine
 10
-1069.451558034036
 20
274.299328604216
 30
0.0
 11
-1069.451558034036
 21
273.5493282022155
 31
0.0
  0
LINE
  5
F4
330
74
100
AcDbEntity
  8
0
  6
Continuous
 62
     1
100
AcDbLine
 10
-1069.451558034036
 20
276.3028196172018
 30
0.0
 11
-1069.451558034036
 21
274.299328604216
 31
0.0
  0
LINE
  5
F5
330
74
100
AcDbEntity
  8
0
  6
Continuous
 62
     1
100
AcDbLine
 10
-1069.451558034036
 20
256.0493282021653
 30
0.0
 11
-1069.451558034036
 21
262.5493282022155
 31
0.0
  0
LINE
  5
F6
330
74
100
AcDbEntity
  8
0
  6
Continuous
 62
     1
100
AcDbLine
 10
-1069.451558034036
 20
262.5493282022155
 30
0.0
 11
-1069.451558034036
 21
263.2958375912306
 31
0.0
  0
LINE
  5
F7
330
74
100
AcDbEntity
  8
0
  6
Continuous
 62
     1
100
AcDbLine
 10
-1069.451558034036
 20
270.0493282021653
 30
0.0
 11
-1069.451558034036
 21
265.299328604216
 31
0.0
  0
LINE
  5
F8
330
74
100
AcDbEntity
  8
0
  6
Continuous
 62
     1
100
AcDbLine
 10
-1069.451558034036
 20
264.4493282022128
 30
0.0
 11
-1069.451558034036
 21
263.6104014131363
 31
0.0
  0
LINE
  5
F9
330
74
100
AcDbEntity
  8
0
  6
Continuous
 62
     1
100
AcDbLine
 10
-1069.451558034036
 20
265.299328604216
 30
0.0
 11
-1069.451558034036
 21
264.4493282022128
 31
0.0
  0
LINE
  5
FA
330
74
100
AcDbEntity
  8
0
  6
Continuous
 62
     1
100
AcDbLine
 10
-1069.451558034036
 20
263.6104014131363
 30
0.0
 11
-1069.451558034036
 21
263.2958375912306
 31
0.0
  0
LINE
  5
FB
330
74
100
AcDbEntity
  8
0
  6
Continuous
 62
     1
100
AcDbLine
 10
-1069.451558034036
 20
284.301881684916
 30
0.0
 11
-1069.451558034036
 21
285.0493282021987
 31
0.0
  0
LINE
  5
FC
330
74
100
AcDbEntity
  8
0
  6
Continuous
 62
     1
100
AcDbLine
 10
-1069.451558034036
 20
276.3028196172018
 30
0.0
 11
-1069.451558034036
 21
284.0544714127206
 31
0.0
  0
LINE
  5
FD
330
74
100
AcDbEntity
  8
0
  6
Continuous
 62
     1
100
AcDbLine
 10
-1069.451558034036
 20
284.0544714127206
 30
0.0
 11
-1069.451558034036
 21
284.301881684916
 31
0.0
  0
LINE
  5
FE
330
74
100
AcDbEntity
  8
0
  6
Continuous
 62
     1
100
AcDbLine
 10
-963.0515580339851
 20
251.4922140137521
 30
0.0
 11
-1067.951558034036
 21
252.0414741487902
 31
0.0
  0
LINE
  5
FF
330
74
100
AcDbEntity
  8
0
  6
Continuous
 62
     1
100
AcDbLine
 10
-963.0515580339478
 20
251.3222801020383
 30
0.0
 11
-963.0515580339851
 21
251.4922140137521
 31
0.0
  0
LINE
  5
100
330
74
100
AcDbEntity
  8
0
  6
Continuous
 62
     1
100
AcDbLine
 10
-963.051558033985
 20
250.8234513831193
 30
0.0
 11
-963.051558033985
 21
246.742851203081
 31
0.0
  0
LINE
  5
101
330
74
100
AcDbEntity
  8
0
  6
Continuous
 62
     1
100
AcDbLine
 10
-963.0515580339478
 20
251.3222801020383
 30
0.0
 11
-963.051558033985
 21
250.8234513831193
 31
0.0
  0
LINE
  5
102
330
74
100
AcDbEntity
  8
0
  6
Continuous
 62
     3
100
AcDbLine
 10
-1068.954176015952
 20
237.0406463667792
 30
0.0
 11
-1068.954176015952
 21
238.478775499846
 31
0.0
  0
LINE
  5
103
330
74
100
AcDbEntity
  8
0
  6
Continuous
 62
     1
100
AcDbLine
 10
-1067.951558034036
 20
238.478775499846
 30
0.0
 11
-1067.951558034036
 21
254.6198825126209
 31
0.0
  0
LINE
  5
104
330
74
100
AcDbEntity
  8
0
  6
Continuous
 62
     1
100
AcDbLine
 10
-1069.451558034036
 20
254.6198825126209
 30
0.0
 11
-1067.951558034036
 21
254.6198825126209
 31
0.0
  0
LINE
  5
105
330
74
100
AcDbEntity
  8
0
  6
Continuous
 62
     1
100
AcDbLine
 10
-1067.951558034036
 20
273.5231456048232
 30
0.0
 11
-1069.451558034036
 21
273.5493282022155
 31
0.0
  0
LINE
  5
106
330
74
100
AcDbEntity
  8
0
  6
Continuous
 62
     1
100
AcDbLine
 10
-963.0515580339857
 20
105.6064423906456
 30
0.0
 11
-1068.954176015952
 21
105.0519325121552
 31
0.0
  0
LINE
  5
107
330
74
100
AcDbEntity
  8
0
  6
Continuous
 62
     1
100
AcDbLine
 10
-963.0515580339857
 20
105.6064423906456
 30
0.0
 11
-963.051558033985
 21
246.2446154737316
 31
0.0
  0
LINE
  5
108
330
74
100
AcDbEntity
  8
0
  6
Continuous
 62
     1
100
AcDbLine
 10
-1069.451558034036
 20
238.478775499846
 30
0.0
 11
-1067.951558034036
 21
238.478775499846
 31
0.0
  0
LINE
  5
109
330
74
100
AcDbEntity
  8
0
  6
Continuous
 62
     1
100
AcDbLine
 10
-1067.951558034036
 20
237.0231456048066
 30
0.0
 11
-1067.951558034036
 21
225.0755107995912
 31
0.0
  0
LINE
  5
10A
330
74
100
AcDbEntity
  8
0
  6
Continuous
 62
     1
100
AcDbLine
 10
-1067.951558034036
 20
237.0231456048066
 30
0.0
 11
-1069.451558034036
 21
237.0493282021988
 31
0.0
  0
LINE
  5
10B
330
74
100
AcDbEntity
  8
0
  6
Continuous
 62
     1
100
AcDbLine
 10
-1067.951558034036
 20
225.0755107995912
 30
0.0
 11
-1069.451558034036
 21
225.0493282021987
 31
0.0
  0
LINE
  5
10C
330
74
100
AcDbEntity
  8
0
  6
Continuous
 62
     1
100
AcDbLine
 10
-1067.951558034036
 20
262.5755107996079
 30
0.0
 11
-1069.451558034036
 21
262.5493282022155
 31
0.0
  0
LINE
  5
10D
330
74
100
AcDbEntity
  8
0
  6
Continuous
 62
     1
100
AcDbLine
 10
-1067.951558034036
 20
256.0755107995576
 30
0.0
 11
-1069.451558034036
 21
256.0493282021653
 31
0.0
  0
LINE
  5
10E
330
74
100
AcDbEntity
  8
0
  6
Continuous
 62
     1
100
AcDbLine
 10
-1067.951558034036
 20
262.5755107996079
 30
0.0
 11
-1067.951558034036
 21
256.0755107995576
 31
0.0
  0
LINE
  5
10F
330
74
100
AcDbEntity
  8
0
  6
Continuous
 62
     1
100
AcDbLine
 10
-963.051558033985
 20
246.2446154737316
 30
0.0
 11
-963.051558033985
 21
246.742851203081
 31
0.0
  0
LINE
  5
110
330
74
100
AcDbEntity
  8
0
  6
Continuous
 62
     1
100
AcDbLine
 10
-1067.951558034036
 20
272.5231456048231
 30
0.0
 11
-1069.451558034036
 21
272.5493282022154
 31
0.0
  0
LINE
  5
111
330
74
100
AcDbEntity
  8
0
  6
Continuous
 62
     1
100
AcDbLine
 10
-1067.951558034036
 20
273.5231456048232
 30
0.0
 11
-1067.951558034036
 21
272.5231456048231
 31
0.0
  0
LINE
  5
112
330
74
100
AcDbEntity
  8
0
  6
Continuous
 62
     1
100
AcDbLine
 10
-1067.951558034036
 20
272.5231456048231
 30
0.0
 11
-1067.951558034036
 21
262.5755107996079
 31
0.0
  0
LINE
  5
113
330
74
100
AcDbEntity
  8
1
  6
DOT_CENTER
 62
     4
100
AcDbLine
 10
-1065.951558034036
 20
231.0493282021991
 30
0.0
 11
-1071.451558034036
 21
231.0493282021987
 31
0.0
  0
LINE
  5
114
330
74
100
AcDbEntity
  8
1
  6
DOT_CENTER
 62
     4
100
AcDbLine
 10
-1065.951558034036
 20
267.5493282022156
 30
0.0
 11
-1071.451558034036
 21
267.5493282022153
 31
0.0
  0
LINE
  5
115
330
74
100
AcDbEntity
  8
1
  6
DOT_CENTER
 62
     4
100
AcDbLine
 10
-1065.951558034037
 20
153.5493282022154
 30
0.0
 11
-1071.451558034036
 21
153.5493282022155
 31
0.0
  0
LINE
  5
116
330
74
100
AcDbEntity
  8
1
  6
DOT_CENTER
 62
     4
100
AcDbLine
 10
-1065.951558034036
 20
89.54932820221549
 30
0.0
 11
-1071.451558034036
 21
89.54932820221549
 31
0.0
  0
ARC
  5
117
330
74
100
AcDbEntity
  8
0
  6
Continuous
 62
     1
100
AcDbCircle
 10
-1068.951558034036
 20
104.5519393660316
 30
0.0
 40
0.4999999999998886
100
AcDbArc
 50
90.3000000000386
 51
180.0000000000114
  0
SPLINE
  5
118
330
74
100
AcDbEntity
  8
0
  6
Continuous
 62
     3
100
AcDbSpline
210
0.0
220
0.0
230
1.0
 70
     8
 71
     3
 72
    11
 73
     7
 74
     5
 42
0.0000000001
 43
0.0000000001
 44
0.00000001
 40
0.0
 40
0.0
 40
0.0
 40
0.0
 40
28.63848794377655
 40
51.94931020938395
 40
78.41810456755654
 40
104.9012455117545
 40
104.9012455117545
 40
104.9012455117545
 40
104.9012455117545
 10
-1067.951558034036
 20
251.3346352000866
 30
0.0
 10
-1058.405508055969
 20
251.2882550489572
 30
0.0
 10
-1041.089275699063
 20
251.2041229235703
 30
0.0
 10
-1014.950217428822
 20
251.0768354844901
 30
0.0
 10
-989.5296004991033
 20
250.9528703094308
 30
0.0
 10
-971.8791662350973
 20
250.8665988165745
 30
0.0
 10
-963.051558033985
 20
250.8234513831193
 30
0.0
 11
-1067.951558034036
 21
251.3346352000866
 31
0.0
 11
-1039.313408382814
 21
251.1954365648555
 31
0.0
 11
-1016.002862435216
 21
251.0819362403696
 31
0.0
 11
-989.5343828792596
 21
250.9528441370143
 31
0.0
 11
-963.051558033985
 21
250.8234513831193
 31
0.0
  0
SPLINE
  5
119
330
74
100
AcDbEntity
  8
0
  6
Continuous
 62
     3
100
AcDbSpline
210
0.0
220
0.0
230
1.0
 70
     8
 71
     3
 72
    11
 73
     7
 74
     5
 42
0.0000000001
 43
0.0000000001
 44
0.00000001
 40
0.0
 40
0.0
 40
0.0
 40
0.0
 40
25.85140703118083
 40
51.70281394202065
 40
78.30201123657667
 40
104.9012085464091
 40
104.9012085464091
 40
104.9012085464091
 40
104.9012085464091
 10
-1067.951558034036
 20
246.7481564380334
 30
0.0
 10
-1059.334521034054
 20
246.7069178787354
 30
0.0
 10
-1042.100447074203
 20
246.6244407603314
 30
0.0
 10
-1016.000076879539
 20
246.4992541500925
 30
0.0
 10
-989.6504470421725
 20
246.3726810683484
 30
0.0
 10
-971.9178543717449
 20
246.2873040052787
 30
0.0
 10
-963.051558033985
 20
246.2446154737316
 30
0.0
 11
-1067.951558034036
 21
246.7481564380334
 31
0.0
 11
-1042.100447253955
 21
246.6243948616847
 31
0.0
 11
-1016.249337621386
 21
246.5004189176299
 31
0.0
 11
-989.6504472838877
 21
246.372631874256
 31
0.0
 11
-963.051558033985
 21
246.2446154737316
 31
0.0
  0
SPLINE
  5
11A
330
74
100
AcDbEntity
  8
0
  6
Continuous
 62
     3
100
AcDbSpline
210
0.0
220
0.0
230
1.0
 70
     8
 71
     3
 72
    11
 73
     7
 74
     5
 42
0.0000000001
 43
0.0000000001
 44
0.00000001
 40
0.0
 40
0.0
 40
0.0
 40
0.0
 40
25.85140676418181
 40
51.70281320177981
 40
78.30200998138517
 40
104.90120706655
 40
104.90120706655
 40
104.90120706655
 40
104.90120706655
 10
-1067.951558034036
 20
247.2460837670543
 30
0.0
 10
-1059.334520998446
 20
247.2048712534873
 30
0.0
 10
-1042.100447036127
 20
247.1224462268739
 30
0.0
 10
-1016.000076889149
 20
246.9973369308706
 30
0.0
 10
-989.6504470864884
 20
246.8708408106024
 30
0.0
 10
-971.9178544187703
 20
246.7855144057515
 30
0.0
 10
-963.051558033985
 20
246.742851203081
 30
0.0
 11
-1067.951558034036
 21
247.2460837670543
 31
0.0
 11
-1042.100447148241
 21
247.1224000675616
 31
0.0
 11
-1016.249337621386
 21
246.9985007841489
 31
0.0
 11
-989.6504474261856
 21
246.8707913333086
 31
0.0
 11
-963.051558033985
 21
246.742851203081
 31
0.0
  0
SPLINE
  5
11B
330
74
100
AcDbEntity
  8
0
  6
Continuous
 62
     3
100
AcDbSpline
210
0.0
220
0.0
230
1.0
 70
     8
 71
     3
 72
    11
 73
     7
 74
     5
 42
0.0000000001
 43
0.0000000001
 44
0.00000001
 40
0.0
 40
0.0
 40
0.0
 40
0.0
 40
24.82757030573217
 40
51.94930979873952
 40
78.41798791625249
 40
104.9012442835833
 40
104.9012442835833
 40
104.9012442835833
 40
104.9012442835833
 10
-1067.951558034036
 20
251.8332118005753
 30
0.0
 10
-1059.675798829941
 20
251.7930265956834
 30
0.0
 10
-1042.359566374684
 20
251.7089429083734
 30
0.0
 10
-1016.220546604014
 20
251.5817344635091
 30
0.0
 10
-989.5296390005506
 20
251.451637808999
 30
0.0
 10
-971.8792048090205
 20
251.3654072510988
 30
0.0
 10
-963.0515580339478
 20
251.3222801020383
 30
0.0
 11
-1067.951558034036
 21
251.8332118005753
 31
0.0
 11
-1043.124280630094
 21
251.7126133189696
 31
0.0
 11
-1016.002862225604
 21
251.5806403855146
 31
0.0
 11
-989.534498602012
 21
251.4516117924624
 31
0.0
 11
-963.0515580339478
 21
251.3222801020383
 31
0.0
  0
SPLINE
  5
11C
330
74
100
AcDbEntity
  8
0
  6
Continuous
 62
     1
100
AcDbSpline
210
0.0
220
0.0
230
1.0
 70
     8
 71
     3
 72
     9
 73
     5
 74
     3
 42
0.0000000001
 43
0.0000000001
 44
0.00000001
 40
0.0
 40
0.0
 40
0.0
 40
0.0
 40
1.500761581255607
 40
3.000627754597419
 40
3.000627754597419
 40
3.000627754597419
 40
3.000627754597419
 10
-963.0515580339855
 20
221.8675640631031
 30
0.0
 10
-962.5513973804258
 20
221.8578986653071
 30
0.0
 10
-961.5513744870001
 20
221.8385736364363
 30
0.0
 10
-960.5513973849802
 20
221.8170088722885
 30
0.0
 10
-960.051558033985
 20
221.8062297077513
 30
0.0
 11
-963.0515580339855
 21
221.8675640631031
 31
0.0
 11
-961.5510875279907
 21
221.8380076016697
 31
0.0
 11
-960.051558033985
 21
221.8062297077513
 31
0.0
  0
ENDBLK
  5
76
330
74
100
AcDbEntity
  8
0
100
AcDbBlockEnd
  0
BLOCK
  5
78
330
77
100
AcDbEntity
  8
0
100
AcDbBlockBegin
  2
0059_1501_0000
 70
     0
 10
-1124.988831175544
 20
288.5517301343067
 30
0.0
  3
0059_1501_0000
  1

  0
LINE
  5
11D
330
77
100
AcDbEntity
  8
0
  6
Continuous
 62
     1
100
AcDbLine
 10
-1069.451558034036
 20
94.54932820221549
 30
0.0
 11
-1069.451558034036
 21
100.049328202199
 31
0.0
  0
LINE
  5
11E
330
77
100
AcDbEntity
  8
0
  6
Continuous
 62
     1
100
AcDbLine
 10
-1069.451558034036
 20
75.5493282021989
 30
0.0
 11
-1069.451558034036
 21
84.5493282022156
 31
0.0
  0
LINE
  5
11F
330
77
100
AcDbEntity
  8
0
  6
Continuous
 62
     1
100
AcDbLine
 10
-1069.451558034036
 20
84.5493282022156
 30
0.0
 11
-1069.451558034036
 21
87.80866371812769
 31
0.0
  0
LINE
  5
120
330
77
100
AcDbEntity
  8
0
  6
Continuous
 62
     1
100
AcDbLine
 10
-1069.451558034036
 20
87.80866371812769
 30
0.0
 11
-1069.451558034036
 21
88.049328202199
 31
0.0
  0
LINE
  5
121
330
77
100
AcDbEntity
  8
0
  6
Continuous
 62
     1
100
AcDbLine
 10
-1069.451558034036
 20
104.5519393660315
 30
0.0
 11
-1069.451558034036
 21
113.0056905398783
 31
0.0
  0
LINE
  5
122
330
77
100
AcDbEntity
  8
0
  6
Continuous
 62
     1
100
AcDbLine
 10
-1069.451558034036
 20
88.28824105971236
 30
0.0
 11
-1069.451558034036
 21
94.54932820221549
 31
0.0
  0
LINE
  5
123
330
77
100
AcDbEntity
  8
0
  6
Continuous
 62
     1
100
AcDbLine
 10
-1069.451558034036
 20
88.049328202199
 30
0.0
 11
-1069.451558034036
 21
88.28824105971236
 31
0.0
  0
LINE
  5
124
330
77
100
AcDbEntity
  8
0
  6
Continuous
 62
     1
100
AcDbLine
 10
-1069.451558034036
 20
118.0224030203278
 30
0.0
 11
-1069.451558034036
 21
122.2676458760329
 31
0.0
  0
LINE
  5
125
330
77
100
AcDbEntity
  8
0
  6
Continuous
 62
     1
100
AcDbLine
 10
-1069.451558034036
 20
100.049328202199
 30
0.0
 11
-1069.451558034036
 21
104.5519393660315
 31
0.0
  0
LINE
  5
126
330
77
100
AcDbEntity
  8
0
  6
Continuous
 62
     1
100
AcDbLine
 10
-1069.451558034036
 20
113.0056905398783
 30
0.0
 11
-1069.451558034036
 21
118.0224030203278
 31
0.0
  0
LINE
  5
127
330
77
100
AcDbEntity
  8
0
  6
Continuous
 62
     1
100
AcDbLine
 10
-1069.451558034036
 20
68.0441900158306
 30
0.0
 11
-1069.451558034036
 21
75.5493282021989
 31
0.0
  0
LINE
  5
128
330
77
100
AcDbEntity
  8
0
  6
Continuous
 62
     1
100
AcDbLine
 10
-1069.451558034036
 20
67.0493282021989
 30
0.0
 11
-1069.451558034036
 21
67.79677974363526
 31
0.0
  0
LINE
  5
129
330
77
100
AcDbEntity
  8
0
  6
Continuous
 62
     1
100
AcDbLine
 10
-1069.451558034036
 20
67.79677974363526
 30
0.0
 11
-1069.451558034036
 21
68.0441900158306
 31
0.0
  0
LINE
  5
12A
330
77
100
AcDbEntity
  8
0
  6
Continuous
 62
     1
100
AcDbLine
 10
-1069.451558034036
 20
122.2676458760329
 30
0.0
 11
-1069.451558034036
 21
137.8610508070321
 31
0.0
  0
LINE
  5
12B
330
77
100
AcDbEntity
  8
0
  6
Continuous
 62
     1
100
AcDbLine
 10
-1069.451558034036
 20
138.2366575800906
 30
0.0
 11
-1069.451558034036
 21
142.5493282022155
 31
0.0
  0
LINE
  5
12C
330
77
100
AcDbEntity
  8
0
  6
Continuous
 62
     1
100
AcDbLine
 10
-1069.451558034036
 20
137.8610508070321
 30
0.0
 11
-1069.451558034036
 21
138.2366575800906
 31
0.0
  0
LINE
  5
12D
330
77
100
AcDbEntity
  8
0
  6
Continuous
 62
     1
100
AcDbLine
 10
-1123.215383506049
 20
108.8698662098113
 30
0.0
 11
-1123.273049212331
 21
108.8708727789882
 31
0.0
  0
LINE
  5
12E
330
77
100
AcDbEntity
  8
0
  6
Continuous
 62
     3
100
AcDbLine
 10
-1069.451558034036
 20
68.0441900158306
 30
0.0
 11
-1097.329211252353
 21
69.01769911783819
 31
0.0
  0
LINE
  5
12F
330
77
100
AcDbEntity
  8
0
  6
Continuous
 62
     1
100
AcDbLine
 10
-1109.87377370744
 20
117.6541243236047
 30
0.0
 11
-1109.869533114677
 21
117.6540145012458
 31
0.0
  0
LINE
  5
130
330
77
100
AcDbEntity
  8
0
  6
Continuous
 62
     1
100
AcDbLine
 10
-1123.266321936108
 20
109.4636758642878
 30
0.0
 11
-1123.328760088741
 21
109.4625860252929
 31
0.0
  0
LINE
  5
131
330
77
100
AcDbEntity
  8
0
  6
Continuous
 62
     1
100
AcDbLine
 10
-1123.21533158199
 20
100.5482801920401
 30
0.0
 11
-1123.059780304723
 21
100.7365196287005
 31
0.0
  0
LINE
  5
132
330
77
100
AcDbEntity
  8
0
  6
Continuous
 62
     1
100
AcDbLine
 10
-1122.965236869965
 20
101.2706320419256
 30
0.0
 11
-1123.32870866229
 21
101.171381560017
 31
0.0
  0
LINE
  5
133
330
77
100
AcDbEntity
  8
0
  6
Continuous
 62
     1
100
AcDbLine
 10
-1123.273001047295
 20
101.1323140989923
 30
0.0
 11
-1122.971651276811
 21
101.2129286567859
 31
0.0
  0
LINE
  5
134
330
77
100
AcDbEntity
  8
0
  6
Continuous
 62
     1
100
AcDbLine
 10
-1110.255549108769
 20
94.99348487865117
 30
0.0
 11
-1110.255703017764
 21
99.69013136791202
 31
0.0
  0
LINE
  5
135
330
77
100
AcDbEntity
  8
0
  6
Continuous
 62
     1
100
AcDbLine
 10
-1105.167159247992
 20
64.79482512302545
 30
0.0
 11
-1105.204440128034
 21
64.79772140260397
 31
0.0
  0
LINE
  5
136
330
77
100
AcDbEntity
  8
0
  6
Continuous
 62
     1
100
AcDbLine
 10
-1105.1221988833
 20
64.79257752096461
 30
0.0
 11
-1105.167159247992
 21
64.79482512302545
 31
0.0
  0
LINE
  5
137
330
77
100
AcDbEntity
  8
0
  6
Continuous
 62
     1
100
AcDbLine
 10
-1097.329197130133
 20
64.52043990309332
 30
0.0
 11
-1069.451558034036
 21
63.54693129424456
 31
0.0
  0
LINE
  5
138
330
77
100
AcDbEntity
  8
0
  6
Continuous
 62
     1
100
AcDbLine
 10
-1069.451558034036
 20
67.0493282021989
 30
0.0
 11
-1069.451558034036
 21
63.54693129424456
 31
0.0
  0
LINE
  5
139
330
77
100
AcDbEntity
  8
0
  6
Continuous
 62
     1
100
AcDbLine
 10
-1097.329197130133
 20
64.52043990309332
 30
0.0
 11
-1105.1221988833
 21
64.79257752096461
 31
0.0
  0
LINE
  5
13A
330
77
100
AcDbEntity
  8
0
  6
Continuous
 62
     1
100
AcDbLine
 10
-1124.677621838357
 20
117.395730221833
 30
0.0
 11
-1124.67257689436
 21
117.3956295642715
 31
0.0
  0
LINE
  5
13B
330
77
100
AcDbEntity
  8
0
  6
Continuous
 62
     1
100
AcDbLine
 10
-1069.451558034036
 20
164.5493282022155
 30
0.0
 11
-1069.451558034036
 21
175.6744319694368
 31
0.0
  0
LINE
  5
13C
330
77
100
AcDbEntity
  8
0
  6
Continuous
 62
     1
100
AcDbLine
 10
-1069.451558034036
 20
142.5493282022155
 30
0.0
 11
-1069.451558034036
 21
164.5493282022155
 31
0.0
  0
LINE
  5
13D
330
77
100
AcDbEntity
  8
0
  6
Continuous
 62
     1
100
AcDbLine
 10
-1069.451558034036
 20
176.4249438584618
 30
0.0
 11
-1069.451558034036
 21
213.8619988227832
 31
0.0
  0
LINE
  5
13E
330
77
100
AcDbEntity
  8
0
  6
Continuous
 62
     1
100
AcDbLine
 10
-1069.451558034036
 20
214.237409545891
 30
0.0
 11
-1069.451558034036
 21
225.0493282021987
 31
0.0
  0
LINE
  5
13F
330
77
100
AcDbEntity
  8
0
  6
Continuous
 62
     1
100
AcDbLine
 10
-1069.451558034036
 20
213.8619988227832
 30
0.0
 11
-1069.451558034036
 21
214.237409545891
 31
0.0
  0
LINE
  5
140
330
77
100
AcDbEntity
  8
0
  6
Continuous
 62
     1
100
AcDbLine
 10
-1069.451558034036
 20
175.6744319694368
 30
0.0
 11
-1069.451558034036
 21
176.4249438584618
 31
0.0
  0
LINE
  5
141
330
77
100
AcDbEntity
  8
0
  6
Continuous
 62
     1
100
AcDbLine
 10
-1123.266266900994
 20
242.634980281837
 30
0.0
 11
-1123.32870866229
 21
242.6360701844365
 31
0.0
  0
LINE
  5
142
330
77
100
AcDbEntity
  8
0
  6
Continuous
 62
     1
100
AcDbLine
 10
-1123.273001047295
 20
243.2277851692157
 30
0.0
 11
-1123.215331581991
 21
243.228791805476
 31
0.0
  0
LINE
  5
143
330
77
100
AcDbEntity
  8
0
  6
Continuous
 62
     1
100
AcDbLine
 10
-1123.059812360383
 20
251.3621171888769
 30
0.0
 11
-1123.215383506049
 21
251.5503766595398
 31
0.0
  0
LINE
  5
144
330
77
100
AcDbEntity
  8
0
  6
Continuous
 62
     1
100
AcDbLine
 10
-1122.96526136078
 20
250.8280190277245
 30
0.0
 11
-1123.328760024708
 21
250.9272768873295
 31
0.0
  0
LINE
  5
145
330
77
100
AcDbEntity
  8
0
  6
Continuous
 62
     1
100
AcDbLine
 10
-1122.971677001643
 20
250.885723583772
 30
0.0
 11
-1123.273049212331
 21
250.9663440944368
 31
0.0
  0
LINE
  5
146
330
77
100
AcDbEntity
  8
0
  6
Continuous
 62
     3
100
AcDbLine
 10
-1097.329421628368
 20
283.0809549642204
 30
0.0
 11
-1069.451558034036
 21
284.0544714127206
 31
0.0
  0
LINE
  5
147
330
77
100
AcDbEntity
  8
0
  6
Continuous
 62
     1
100
AcDbLine
 10
-1069.451558034036
 20
273.5493282022155
 30
0.0
 11
-1069.451558034036
 21
272.5493282022154
 31
0.0
  0
LINE
  5
148
330
77
100
AcDbEntity
  8
0
  6
Continuous
 62
     1
100
AcDbLine
 10
-1069.451558034036
 20
272.5493282022154
 30
0.0
 11
-1069.451558034036
 21
270.0493282021653
 31
0.0
  0
LINE
  5
149
330
77
100
AcDbEntity
  8
0
  6
Continuous
 62
     1
100
AcDbLine
 10
-1069.451558034036
 20
238.478775499846
 30
0.0
 11
-1069.451558034036
 21
247.250876356968
 31
0.0
  0
LINE
  5
14A
330
77
100
AcDbEntity
  8
0
  6
Continuous
 62
     1
100
AcDbLine
 10
-1069.451558034036
 20
247.250876356968
 30
0.0
 11
-1069.451558034036
 21
254.6198825126209
 31
0.0
  0
LINE
  5
14B
330
77
100
AcDbEntity
  8
0
  6
Continuous
 62
     1
100
AcDbLine
 10
-1069.451558034036
 20
254.6198825126209
 30
0.0
 11
-1069.451558034036
 21
256.0493282021653
 31
0.0
  0
LINE
  5
14C
330
77
100
AcDbEntity
  8
0
  6
Continuous
 62
     1
100
AcDbLine
 10
-1069.451558034036
 20
225.0493282021987
 30
0.0
 11
-1069.451558034036
 21
237.0493282021988
 31
0.0
  0
LINE
  5
14D
330
77
100
AcDbEntity
  8
0
  6
Continuous
 62
     1
100
AcDbLine
 10
-1069.451558034036
 20
237.0493282021988
 30
0.0
 11
-1069.451558034036
 21
238.478775499846
 31
0.0
  0
LINE
  5
14E
330
77
100
AcDbEntity
  8
0
  6
Continuous
 62
     1
100
AcDbLine
 10
-1069.451558034036
 20
274.299328604216
 30
0.0
 11
-1069.451558034036
 21
273.5493282022155
 31
0.0
  0
LINE
  5
14F
330
77
100
AcDbEntity
  8
0
  6
Continuous
 62
     1
100
AcDbLine
 10
-1069.451558034036
 20
276.3028196172018
 30
0.0
 11
-1069.451558034036
 21
274.299328604216
 31
0.0
  0
LINE
  5
150
330
77
100
AcDbEntity
  8
0
  6
Continuous
 62
     1
100
AcDbLine
 10
-1069.451558034036
 20
256.0493282021653
 30
0.0
 11
-1069.451558034036
 21
262.5493282022155
 31
0.0
  0
LINE
  5
151
330
77
100
AcDbEntity
  8
0
  6
Continuous
 62
     1
100
AcDbLine
 10
-1069.451558034036
 20
262.5493282022155
 30
0.0
 11
-1069.451558034036
 21
263.2958375912306
 31
0.0
  0
LINE
  5
152
330
77
100
AcDbEntity
  8
0
  6
Continuous
 62
     1
100
AcDbLine
 10
-1069.451558034036
 20
270.0493282021653
 30
0.0
 11
-1069.451558034036
 21
265.299328604216
 31
0.0
  0
LINE
  5
153
330
77
100
AcDbEntity
  8
0
  6
Continuous
 62
     1
100
AcDbLine
 10
-1069.451558034036
 20
264.4493282022128
 30
0.0
 11
-1069.451558034036
 21
263.6104014131363
 31
0.0
  0
LINE
  5
154
330
77
100
AcDbEntity
  8
0
  6
Continuous
 62
     1
100
AcDbLine
 10
-1069.451558034036
 20
265.299328604216
 30
0.0
 11
-1069.451558034036
 21
264.4493282022128
 31
0.0
  0
LINE
  5
155
330
77
100
AcDbEntity
  8
0
  6
Continuous
 62
     1
100
AcDbLine
 10
-1069.451558034036
 20
263.6104014131363
 30
0.0
 11
-1069.451558034036
 21
263.2958375912306
 31
0.0
  0
LINE
  5
156
330
77
100
AcDbEntity
  8
0
  6
Continuous
 62
     1
100
AcDbLine
 10
-1069.451558034036
 20
284.301881684916
 30
0.0
 11
-1069.451558034036
 21
285.0493282021987
 31
0.0
  0
LINE
  5
157
330
77
100
AcDbEntity
  8
0
  6
Continuous
 62
     1
100
AcDbLine
 10
-1069.451558034036
 20
276.3028196172018
 30
0.0
 11
-1069.451558034036
 21
284.0544714127206
 31
0.0
  0
LINE
  5
158
330
77
100
AcDbEntity
  8
0
  6
Continuous
 62
     1
100
AcDbLine
 10
-1069.451558034036
 20
284.0544714127206
 30
0.0
 11
-1069.451558034036
 21
284.301881684916
 31
0.0
  0
LINE
  5
159
330
77
100
AcDbEntity
  8
0
  6
Continuous
 62
     1
100
AcDbLine
 10
-1110.255703017764
 20
117.6474679339032
 30
0.0
 11
-1110.255703017764
 21
234.4511395029649
 31
0.0
  0
LINE
  5
15A
330
77
100
AcDbEntity
  8
0
  6
Continuous
 62
     1
100
AcDbLine
 10
-1110.255703017764
 20
252.4080579794517
 30
0.0
 11
-1110.255703087648
 21
257.1051889383452
 31
0.0
  0
LINE
  5
15B
330
77
100
AcDbEntity
  8
0
  6
Continuous
 62
     1
100
AcDbLine
 10
-1069.451558034036
 20
288.5517301343066
 30
0.0
 11
-1069.451558034036
 21
285.0493282021987
 31
0.0
  0
LINE
  5
15C
330
77
100
AcDbEntity
  8
0
  6
Continuous
 62
     1
100
AcDbLine
 10
-1069.451558034036
 20
288.5517301343066
 30
0.0
 11
-1097.329413760585
 21
287.5782139605554
 31
0.0
  0
LINE
  5
15D
330
77
100
AcDbEntity
  8
0
  6
Continuous
 62
     1
100
AcDbLine
 10
-1105.122406898359
 20
287.3060766435406
 30
0.0
 11
-1097.329413760585
 21
287.5782139605554
 31
0.0
  0
ARC
  5
15E
330
77
100
AcDbEntity
  8
0
  6
Continuous
 62
     1
100
AcDbCircle
 10
-362.6305437008891
 20
175.9928973992701
 30
0.0
 40
752.0000355982822
100
AcDbArc
 50
186.1834379503205
 51
188.4051956734088
  0
ARC
  5
15F
330
77
100
AcDbEntity
  8
0
  6
Continuous
 62
     1
100
AcDbCircle
 10
-1105.068036395913
 20
66.29339048259598
 30
0.0
 40
1.501898167480128
100
AcDbArc
 50
193.2195091291439
 51
263.6315272499873
  0
ARC
  5
160
330
77
100
AcDbEntity
  8
0
  6
Continuous
 62
     1
100
AcDbCircle
 10
-1105.070798172631
 20
66.29324044991401
 30
0.0
 40
1.499175343615611
100
AcDbArc
 50
188.5252761634729
 51
193.2380645472931
  0
ARC
  5
161
330
77
100
AcDbEntity
  8
0
  6
Continuous
 62
     1
100
AcDbCircle
 10
-1105.069550000744
 20
66.29089525546689
 30
0.0
 40
1.499250948417871
100
AcDbArc
 50
263.678437296172
 51
266.2670983361106
  0
ARC
  5
162
330
77
100
AcDbEntity
  8
0
  6
Continuous
 62
     3
100
AcDbCircle
 10
-366.2161191928185
 20
176.0500463471833
 30
0.0
 40
740.3381676072389
100
AcDbArc
 50
171.6708920062111
 51
188.3292286821009
  0
ARC
  5
163
330
77
100
AcDbEntity
  8
0
  6
Continuous
 62
     3
100
AcDbCircle
 10
-366.2579722986461
 20
176.0500455196647
 30
0.0
 40
738.8647234789253
100
AcDbArc
 50
171.6709088829458
 51
188.3292037347729
  0
ARC
  5
164
330
77
100
AcDbEntity
  8
0
  6
Continuous
 62
     1
100
AcDbCircle
 10
-362.6301641342595
 20
176.1101617155361
 30
0.0
 40
752.0000937035642
100
AcDbArc
 50
171.5952530235444
 51
173.8168986055042
  0
ARC
  5
165
330
77
100
AcDbEntity
  8
0
  6
Continuous
 62
     1
100
AcDbCircle
 10
-1105.053219327456
 20
285.7919361390907
 30
0.0
 40
1.518909468888632
100
AcDbArc
 50
170.2365238473885
 51
171.1259467521925
  0
ARC
  5
166
330
77
100
AcDbEntity
  8
0
  6
Continuous
 62
     1
100
AcDbCircle
 10
-1105.07010770536
 20
285.8099677530743
 30
0.0
 40
1.497022717837195
100
AcDbArc
 50
92.00206240451142
 51
97.74281385013474
  0
ARC
  5
167
330
77
100
AcDbEntity
  8
0
  6
Continuous
 62
     1
100
AcDbCircle
 10
-1105.069868804521
 20
285.8070010119869
 30
0.0
 40
1.499994605725214
100
AcDbArc
 50
97.73658858920014
 51
170.6957842120703
  0
SPLINE
  5
168
330
77
100
AcDbEntity
  8
0
  6
Continuous
 62
     3
100
AcDbSpline
210
0.0
220
0.0
230
1.0
 70
     8
 71
     3
 72
    34
 73
    30
 74
    28
 42
0.0000000001
 43
0.0000000001
 44
0.00000001
 40
0.0
 40
0.0
 40
0.0
 40
0.0
 40
0.2502897759370447
 40
0.4122085328764683
 40
0.5071485489550568
 40
0.6445663761569673
 40
0.8981024426099857
 40
1.28240815384943
 40
1.798121804877607
 40
2.4416051277492
 40
3.198424991352195
 40
4.059928254374904
 40
5.017277811871586
 40
6.422142270835544
 40
7.925430953623019
 40
9.496775799607438
 40
11.08202414543867
 40
12.63845159170056
 40
14.13355940215951
 40
15.17521160003249
 40
16.13739522026601
 40
17.00952735296806
 40
17.78111999950895
 40
18.43220175072246
 40
18.95890183388757
 40
19.35779819687924
 40
19.62777566965516
 40
19.73650962787872
 40
19.80864978550529
 40
19.80864978550529
 40
19.80864978550529
 40
19.80864978550529
 10
-1109.594621841877
 20
117.7614206397658
 30
0.0
 10
-1109.574946224486
 20
117.842378005617
 30
0.0
 10
-1109.542541954885
 20
117.9757087294875
 30
0.0
 10
-1109.485924532736
 20
118.1366936021482
 30
0.0
 10
-1109.357536788375
 20
118.2211257094128
 30
0.0
 10
-1109.220110635578
 20
118.0799663154064
 30
0.0
 10
-1109.117918099217
 20
117.8586282638635
 30
0.0
 10
-1108.983914863012
 20
117.4899509350543
 30
0.0
 10
-1108.849640354398
 20
116.9960241033355
 30
0.0
 10
-1108.705270858891
 20
116.3726809998553
 30
0.0
 10
-1108.558627057637
 20
115.6334152372577
 30
0.0
 10
-1108.410315041231
 20
114.7875930147029
 30
0.0
 10
-1108.244225744406
 20
113.7259230891722
 30
0.0
 10
-1108.068088943661
 20
112.44942104789
 30
0.0
 10
-1107.889489178695
 20
110.9669161614667
 30
0.0
 10
-1107.727695511988
 20
109.4220100359963
 30
0.0
 10
-1107.587216507216
 20
107.8572396015737
 30
0.0
 10
-1107.471907415709
 20
106.3158937861312
 30
0.0
 10
-1107.391571539815
 20
104.953798926833
 30
0.0
 10
-1107.3411914617
 20
103.7885302364885
 30
0.0
 10
-1107.314277526542
 20
102.8302261093248
 30
0.0
 10
-1107.305374541218
 20
101.961526472838
 30
0.0
 10
-1107.314567968994
 20
101.1967300438708
 30
0.0
 10
-1107.341187299844
 20
100.5468872061852
 30
0.0
 10
-1107.384637775712
 20
100.0241900570618
 30
0.0
 10
-1107.441675647293
 20
99.6262605411836
 30
0.0
 10
-1107.509900207837
 20
99.38120060450855
 30
0.0
 10
-1107.579029093102
 20
99.23703895270711
 30
0.0
 10
-1107.636732327874
 20
99.21433560696372
 30
0.0
 10
-1107.659746789797
 20
99.2052805637206
 30
0.0
 11
-1109.594621841877
 21
117.7614206397658
 31
0.0
 11
-1109.530575686733
 21
118.0033773754643
 31
0.0
 11
-1109.456605072761
 21
118.1474122049935
 31
0.0
 11
-1109.37302895768
 21
118.1924526272926
 31
0.0
 11
-1109.260246766086
 21
118.1139425228968
 31
0.0
 11
-1109.136733142717
 21
117.8925268011545
 31
0.0
 11
-1109.003966975808
 21
117.5318828983703
 31
0.0
 11
-1108.863427153594
 21
117.0356882508489
 31
0.0
 11
-1108.716919609513
 21
116.4091051946295
 31
0.0
 11
-1108.567981239918
 21
115.6670852029807
 31
0.0
 11
-1108.418307178078
 21
114.8186834423677
 31
0.0
 11
-1108.269592557263
 21
113.8729550792555
 31
0.0
 11
-1108.076439315192
 21
112.4814321821613
 31
0.0
 11
-1107.895987849264
 21
110.9890132958424
 31
0.0
 11
-1107.73202201926
 21
109.4262465724979
 31
0.0
 11
-1107.590307530505
 21
107.8473452704408
 31
0.0
 11
-1107.474543557738
 21
106.295228941654
 31
0.0
 11
-1107.387278574815
 21
104.8026700022313
 31
0.0
 11
-1107.342776522079
 21
103.7619688594262
 31
0.0
 11
-1107.316433668509
 21
102.8001459167223
 31
0.0
 11
-1107.308465796583
 21
101.9280501823512
 31
0.0
 11
-1107.31908868878
 21
101.1565306645441
 31
0.0
 11
-1107.347889712868
 21
100.506086241265
 31
0.0
 11
-1107.394198816981
 21
99.9814259278409
 31
0.0
 11
-1107.457348528286
 21
99.58755993239299
 31
0.0
 11
-1107.536671373943
 21
99.32949846304264
 31
0.0
 11
-1107.59547085647
 21
99.23803429232242
 31
0.0
 11
-1107.659746789797
 21
99.2052805637206
 31
0.0
  0
SPLINE
  5
169
330
77
100
AcDbEntity
  8
0
  6
Continuous
 62
     3
100
AcDbSpline
210
0.0
220
0.0
230
1.0
 70
     8
 71
     3
 72
    31
 73
    27
 74
    25
 42
0.0000000001
 43
0.0000000001
 44
0.00000001
 40
0.0
 40
0.0
 40
0.0
 40
0.0
 40
0.1351960448011403
 40
0.3787939710074869
 40
0.745591462030758
 40
1.236535541895553
 40
1.848352090387586
 40
2.567424545891289
 40
3.385550076278574
 40
4.294333492756608
 40
5.627542698430434
 40
7.053854614784055
 40
8.544423953114894
 40
10.04789464358867
 40
11.5238369433837
 40
12.94151330669939
 40
13.92912537305412
 40
14.84129253422658
 40
15.66805353572873
 40
16.39954742388768
 40
17.01686869574882
 40
17.51639499150962
 40
17.89507236311328
 40
18.15226213684739
 40
18.25951631619493
 40
18.33221676700516
 40
18.33221676700516
 40
18.33221676700516
 40
18.33221676700516
 10
-1109.869533114677
 20
117.6540145012458
 30
0.0
 10
-1109.829325639443
 20
117.6317702568297
 30
0.0
 10
-1109.716671831927
 20
117.569446054322
 30
0.0
 10
-1109.614865504889
 20
117.3277699430226
 30
0.0
 10
-1109.480189157364
 20
116.9930272969998
 30
0.0
 10
-1109.34592117211
 20
116.5184000898824
 30
0.0
 10
-1109.201369596014
 20
115.9297028112076
 30
0.0
 10
-1109.05462954247
 20
115.2280194950498
 30
0.0
 10
-1108.906201117601
 20
114.4264027555165
 30
0.0
 10
-1108.740005416145
 20
113.4198913342174
 30
0.0
 10
-1108.563752142522
 20
112.2098269531689
 30
0.0
 10
-1108.385026811934
 20
110.8043754611165
 30
0.0
 10
-1108.223119383453
 20
109.3397857525927
 30
0.0
 10
-1108.082543864512
 20
107.8563768210419
 30
0.0
 10
-1107.967154443075
 20
106.39516797496
 30
0.0
 10
-1107.886761604658
 20
105.1038544827608
 30
0.0
 10
-1107.836344615513
 20
103.9991411809365
 30
0.0
 10
-1107.809409318978
 20
103.0906648025384
 30
0.0
 10
-1107.80050583188
 20
102.2671279759851
 30
0.0
 10
-1107.809692962576
 20
101.5420696229826
 30
0.0
 10
-1107.836377845718
 20
100.9259400199987
 30
0.0
 10
-1107.879749413111
 20
100.4303518877358
 30
0.0
 10
-1107.937183664276
 20
100.0527697888603
 30
0.0
 10
-1108.005252165934
 20
99.81959510955392
 30
0.0
 10
-1108.076528673526
 20
99.68103252887269
 30
0.0
 10
-1108.135353134349
 20
99.66185822865255
 30
0.0
 10
-1108.159117817796
 20
99.65411194133137
 30
0.0
 11
-1109.869533114677
 21
117.6540145012458
 31
0.0
 11
-1109.756672526856
 21
117.5795802467219
 31
0.0
 11
-1109.633074032134
 21
117.3696674987656
 31
0.0
 11
-1109.500219919915
 21
117.027775433506
 31
0.0
 11
-1109.359592479604
 21
116.5574032270718
 31
0.0
 11
-1109.212990828569
 21
115.963410428359
 31
0.0
 11
-1109.063949507574
 21
115.259953335922
 31
0.0
 11
-1108.914172314302
 21
114.4556547745362
 31
0.0
 11
-1108.76536304644
 21
113.559137568977
 31
0.0
 11
-1108.57208728466
 21
112.2400123793145
 31
0.0
 11
-1108.391512196659
 21
110.8251772934032
 31
0.0
 11
-1108.227435081218
 21
109.3436660202228
 31
0.0
 11
-1108.085628247025
 21
107.8468978555127
 31
0.0
 11
-1107.969787813242
 21
106.3755084895645
 31
0.0
 11
-1107.882462419057
 21
104.9605241975547
 31
0.0
 11
-1107.837928677112
 21
103.9739167074971
 31
0.0
 11
-1107.811568032594
 21
103.0621305229439
 31
0.0
 11
-1107.803595775043
 21
102.2354079596167
 31
0.0
 11
-1107.814227194002
 21
101.5039913332369
 31
0.0
 11
-1107.843047832221
 21
100.8873431973401
 31
0.0
 11
-1107.88938698653
 21
100.3899708992229
 31
0.0
 11
-1107.9525780832
 21
100.0166032023526
 31
0.0
 11
-1108.031954548504
 21
99.77196887019676
 31
0.0
 11
-1108.092635672636
 21
99.6835309814752
 31
0.0
 11
-1108.159117817796
 21
99.65411194133137
 31
0.0
  0
SPLINE
  5
16A
330
77
100
AcDbEntity
  8
0
  6
Continuous
 62
     3
100
AcDbSpline
210
0.0
220
0.0
230
1.0
 70
     8
 71
     3
 72
    15
 73
    11
 74
     9
 42
0.0000000001
 43
0.0000000001
 44
0.00000001
 40
0.0
 40
0.0
 40
0.0
 40
0.0
 40
0.0560229681334492
 40
0.1558207517197021
 40
0.2999521076689203
 40
0.4845103227779592
 40
0.7015654325767624
 40
0.9399742768610431
 40
1.1873694821752
 40
1.432056930056704
 40
1.432056930056704
 40
1.432056930056704
 40
1.432056930056704
 10
-1098.745213810696
 20
68.80393707343612
 30
0.0
 10
-1098.726792839773
 20
68.80700331871479
 30
0.0
 10
-1098.675557254936
 20
68.815531689492
 30
0.0
 10
-1098.576751496097
 20
68.83084662083074
 30
0.0
 10
-1098.435586696831
 20
68.85258306084516
 30
0.0
 10
-1098.255724514755
 20
68.87983695581494
 30
0.0
 10
-1098.044754826992
 20
68.91155478761252
 30
0.0
 10
-1097.813034941854
 20
68.94613858389404
 30
0.0
 10
-1097.57217575141
 20
68.98188398637913
 30
0.0
 10
-1097.4099017732
 20
69.00580461628414
 30
0.0
 10
-1097.329211252353
 20
69.01769911783819
 30
0.0
 11
-1098.745213810696
 21
68.80393707343612
 31
0.0
 11
-1098.68993893211
 21
68.81306180662568
 31
0.0
 11
-1098.591353403318
 21
68.82856958278896
 31
0.0
 11
-1098.448897526069
 21
68.85048238281526
 31
0.0
 11
-1098.266429774329
 21
68.87818173911089
 31
0.0
 11
-1098.051788138656
 21
68.9104600433619
 31
0.0
 11
-1097.815992868689
 21
68.94566469780099
 31
0.0
 11
-1097.571277016111
 21
68.98197639163924
 31
0.0
 11
-1097.329211252353
 21
69.01769911783819
 31
0.0
  0
SPLINE
  5
16B
330
77
100
AcDbEntity
  8
0
  6
Continuous
 62
     1
100
AcDbSpline
210
0.0
220
0.0
230
1.0
 70
     8
 71
     3
 72
    14
 73
    10
 74
     8
 42
0.0000000001
 43
0.0000000001
 44
0.00000001
 40
0.0
 40
0.0
 40
0.0
 40
0.0
 40
0.0702024582656773
 40
0.2101419941640486
 40
0.4672234321561096
 40
0.9521044316549324
 40
1.583279261779053
 40
1.776010368655319
 40
2.049372425611134
 40
2.049372425611134
 40
2.049372425611134
 40
2.049372425611134
 10
-1123.132949371991
 20
99.91143101848954
 30
0.0
 10
-1123.155442433307
 20
99.91946847682601
 30
0.0
 10
-1123.222772508016
 20
99.9435275705467
 30
0.0
 10
-1123.304709973842
 20
100.0879734515848
 30
0.0
 10
-1123.422830602954
 20
100.3506853448792
 30
0.0
 10
-1123.55357075196
 20
100.7943939353621
 30
0.0
 10
-1123.655902078613
 20
101.2170293082705
 30
0.0
 10
-1123.733610770829
 20
101.5745772604164
 30
0.0
 10
-1123.764466385112
 20
101.7268352593879
 30
0.0
 10
-1123.782563098052
 20
101.8161340584619
 30
0.0
 11
-1123.132949371991
 21
99.91143101848954
 31
0.0
 11
-1123.197027179157
 21
99.94010888060231
 31
0.0
 11
-1123.282123012865
 21
100.0512024123358
 31
0.0
 11
-1123.388869943586
 21
100.2850740834326
 31
0.0
 11
-1123.536055250682
 21
100.7470763226589
 31
0.0
 11
-1123.686620561307
 21
101.3600296270945
 31
0.0
 11
-1123.727532313139
 21
101.5483684391322
 31
0.0
 11
-1123.782563098052
 21
101.8161340584619
 31
0.0
  0
SPLINE
  5
16C
330
77
100
AcDbEntity
  8
0
  6
Continuous
 62
     1
100
AcDbSpline
210
0.0
220
0.0
230
1.0
 70
     8
 71
     3
 72
    12
 73
     8
 74
     6
 42
0.0000000001
 43
0.0000000001
 44
0.00000001
 40
0.0
 40
0.0
 40
0.0
 40
0.0
 40
0.109314835968385
 40
0.2098849285042522
 40
0.3011296415046444
 40
0.3484977680332402
 40
0.3784180838653362
 40
0.3784180838653362
 40
0.3784180838653362
 40
0.3784180838653362
 10
-1109.869533114677
 20
117.6540145012458
 30
0.0
 10
-1109.833056949098
 20
117.6571633351816
 30
0.0
 10
-1109.763022563218
 20
117.6632091091118
 30
0.0
 10
-1109.668818637969
 20
117.7027347875686
 30
0.0
 10
-1109.60487801405
 20
117.7506315103582
 30
0.0
 10
-1109.563958174169
 20
117.7900001320675
 30
0.0
 10
-1109.551193282811
 20
117.8124909266798
 30
0.0
 10
-1109.546251669688
 20
117.8211976835707
 30
0.0
 11
-1109.869533114677
 21
117.6540145012458
 31
0.0
 11
-1109.761291410527
 21
117.6692941231486
 31
0.0
 11
-1109.668300837165
 21
117.707596822511
 31
0.0
 11
-1109.594621841877
 21
117.7614206397658
 31
0.0
 11
-1109.561975815871
 21
117.7957423005193
 31
0.0
 11
-1109.546251669688
 21
117.8211976835707
 31
0.0
  0
SPLINE
  5
16D
330
77
100
AcDbEntity
  8
0
  6
Continuous
 62
     1
100
AcDbSpline
210
0.0
220
0.0
230
1.0
 70
    24
 71
     3
 72
     9
 73
     5
 74
     3
 42
0.0000000001
 43
0.0000000001
 44
0.00000001
 40
0.0
 40
0.0
 40
0.0
 40
0.0
 40
0.1855774365448884
 40
0.3711541253080272
 40
0.3711541253080272
 40
0.3711541253080272
 40
0.3711541253080272
 10
-1110.255703017764
 20
117.6474679339032
 30
0.0
 10
-1110.19385329386
 20
117.6485475342105
 30
0.0
 10
-1110.070154095275
 20
117.6507067304748
 30
0.0
 10
-1109.946454896688
 20
117.6528659267389
 30
0.0
 10
-1109.884605422007
 20
117.6539455226959
 30
0.0
 11
-1110.255703017764
 21
117.6474679339032
 31
0.0
 11
-1110.070153846052
 21
117.650706734825
 31
0.0
 11
-1109.884605422007
 21
117.6539455226959
 31
0.0
  0
SPLINE
  5
16E
330
77
100
AcDbEntity
  8
0
  6
Continuous
 62
     1
100
AcDbSpline
210
0.0
220
0.0
230
1.0
 70
     8
 71
     3
 72
     9
 73
     5
 74
     3
 42
0.0000000001
 43
0.0000000001
 44
0.00000001
 40
0.0
 40
0.0
 40
0.0
 40
0.0
 40
0.0048333243727249
 40
0.0108331931130608
 40
0.0108331931130608
 40
0.0108331931130608
 40
0.0108331931130608
 10
-1109.884605422007
 20
117.6539455226959
 30
0.0
 10
-1109.882994564319
 20
117.6539739555922
 30
0.0
 10
-1109.879384061264
 20
117.6540376837912
 30
0.0
 10
-1109.875773426019
 20
117.6540934422646
 30
0.0
 10
-1109.87377370744
 20
117.6541243236047
 30
0.0
 11
-1109.884605422007
 21
117.6539455226959
 31
0.0
 11
-1109.879772822629
 21
117.65402923495
 31
0.0
 11
-1109.87377370744
 21
117.6541243236047
 31
0.0
  0
SPLINE
  5
16F
330
77
100
AcDbEntity
  8
0
  6
Continuous
 62
     1
100
AcDbSpline
210
0.0
220
0.0
230
1.0
 70
     8
 71
     3
 72
    17
 73
    13
 74
    11
 42
0.0000000001
 43
0.0000000001
 44
0.00000001
 40
0.0
 40
0.0
 40
0.0
 40
0.0
 40
0.1297408126567933
 40
0.3287103465478189
 40
0.8219265396320266
 40
1.505959476804396
 40
2.369348655809662
 40
3.388726748802827
 40
4.531908093329411
 40
5.775843051324008
 40
7.037503937809583
 40
8.322100334190305
 40
8.322100334190305
 40
8.322100334190305
 40
8.322100334190305
 10
-1123.130945193756
 20
100.5845218315166
 30
0.0
 10
-1123.109663139427
 20
100.6223937771628
 30
0.0
 10
-1123.055743086742
 20
100.7183458536366
 30
0.0
 10
-1122.998833841036
 20
100.9893731332822
 30
0.0
 10
-1122.94110823603
 20
101.443229633104
 30
0.0
 10
-1122.907254095174
 20
102.1238193923595
 30
0.0
 10
-1122.895724845487
 20
102.9791016807437
 30
0.0
 10
-1122.911300730621
 20
103.987867209358
 30
0.0
 10
-1122.95259725765
 20
105.1226395891165
 30
0.0
 10
-1123.018675466798
 20
106.3371629568507
 30
0.0
 10
-1123.105310514687
 20
107.5976465713538
 30
0.0
 10
-1123.178472838119
 20
108.443254049754
 30
0.0
 10
-1123.215383506049
 20
108.8698662098113
 30
0.0
 11
-1123.130945193756
 21
100.5845218315166
 31
0.0
 11
-1123.071953382923
 21
100.7000754758706
 31
0.0
 11
-1123.020768180138
 21
100.8923485900407
 31
0.0
 11
-1122.954351341232
 21
101.3810724554599
 31
0.0
 11
-1122.91388782721
 21
102.0639075476817
 31
0.0
 11
-1122.90024189879
 21
102.9271888825089
 31
0.0
 11
-1122.91401523169
 21
103.946473922022
 31
0.0
 11
-1122.954653402025
 21
105.0889327289754
 31
0.0
 11
-1123.021286669443
 21
106.331081748777
 31
0.0
 11
-1123.108459375027
 21
107.5897274939686
 31
0.0
 11
-1123.215383506049
 21
108.8698662098113
 31
0.0
  0
SPLINE
  5
170
330
77
100
AcDbEntity
  8
0
  6
Continuous
 62
     1
100
AcDbSpline
210
0.0
220
0.0
230
1.0
 70
     8
 71
     3
 72
    11
 73
     7
 74
     5
 42
0.0000000001
 43
0.0000000001
 44
0.00000001
 40
0.0
 40
0.0
 40
0.0
 40
0.0
 40
0.1196094013815817
 40
0.2394806939637588
 40
0.4169588813808108
 40
0.5943311964359306
 40
0.5943311964359306
 40
0.5943311964359306
 40
0.5943311964359306
 10
-1123.328760088741
 20
109.4625860252929
 30
0.0
 10
-1123.324901431157
 20
109.4229033793643
 30
0.0
 10
-1123.317175667252
 20
109.3434512002251
 30
0.0
 10
-1123.303972908378
 20
109.2050933663257
 30
0.0
 10
-1123.289174168214
 20
109.04754611567
 30
0.0
 10
-1123.278423128407
 20
108.9297521763079
 30
0.0
 10
-1123.273049212331
 20
108.8708727789882
 30
0.0
 11
-1123.328760088741
 21
109.4625860252929
 31
0.0
 11
-1123.317219724963
 21
109.3435346544368
 31
0.0
 11
-1123.305820719921
 21
109.2242065794947
 31
0.0
 11
-1123.289248637323
 21
109.0475037977191
 31
0.0
 11
-1123.273049212331
 21
108.8708727789882
 31
0.0
  0
SPLINE
  5
171
330
77
100
AcDbEntity
  8
0
  6
Continuous
 62
     1
100
AcDbSpline
210
0.0
220
0.0
230
1.0
 70
     8
 71
     3
 72
     9
 73
     5
 74
     3
 42
0.0000000001
 43
0.0000000001
 44
0.00000001
 40
0.0
 40
0.0
 40
0.0
 40
0.0
 40
0.2989910735835782
 40
0.5425530265845819
 40
0.5425530265845819
 40
0.5425530265845819
 40
0.5425530265845819
 10
-1123.12058624325
 20
101.8218817715599
 30
0.0
 10
-1123.095017044908
 20
101.7255047578012
 30
0.0
 10
-1123.048618850536
 20
101.5506177958553
 30
0.0
 10
-1122.98872765266
 20
101.3799002094091
 30
0.0
 10
-1122.961841401165
 20
101.3032619699577
 30
0.0
 11
-1123.12058624325
 21
101.8218817715599
 31
0.0
 11
-1123.039780943152
 21
101.5340169325143
 31
0.0
 11
-1122.961841401165
 21
101.3032619699577
 31
0.0
  0
SPLINE
  5
172
330
77
100
AcDbEntity
  8
0
  6
Continuous
 62
     1
100
AcDbSpline
210
0.0
220
0.0
230
1.0
 70
     8
 71
     3
 72
    12
 73
     8
 74
     6
 42
0.0000000001
 43
0.0000000001
 44
0.00000001
 40
0.0
 40
0.0
 40
0.0
 40
0.0
 40
0.5152815670943249
 40
0.9184775098966915
 40
1.206584242892088
 40
1.294591711819294
 40
1.362302087482708
 40
1.362302087482708
 40
1.362302087482708
 40
1.362302087482708
 10
-1123.705648019527
 20
101.8168018851404
 30
0.0
 10
-1123.666514693421
 20
101.6495390238882
 30
0.0
 10
-1123.596760442131
 20
101.3513968311304
 30
0.0
 10
-1123.482510141267
 20
100.9654020386748
 30
0.0
 10
-1123.387645645603
 20
100.7231047465372
 30
0.0
 10
-1123.315533702849
 20
100.5930082177594
 30
0.0
 10
-1123.281197037157
 20
100.5539147586986
 30
0.0
 10
-1123.266266516258
 20
100.5369158540069
 30
0.0
 11
-1123.705648019527
 21
101.8168018851404
 31
0.0
 11
-1123.582829631903
 21
101.3163713334664
 31
0.0
 11
-1123.465253773113
 21
100.9306993410661
 31
0.0
 11
-1123.354294663911
 21
100.6648167247064
 31
0.0
 11
-1123.309349624094
 21
100.5891512901746
 31
0.0
 11
-1123.266266516258
 21
100.5369158540069
 31
0.0
  0
SPLINE
  5
173
330
77
100
AcDbEntity
  8
0
  6
Continuous
 62
     1
100
AcDbSpline
210
0.0
220
0.0
230
1.0
 70
     8
 71
     3
 72
     9
 73
     5
 74
     3
 42
0.0000000001
 43
0.0000000001
 44
0.00000001
 40
0.0
 40
0.0
 40
0.0
 40
0.0
 40
0.318765496166265
 40
0.6375309962713913
 40
0.6375309962713913
 40
0.6375309962713913
 40
0.6375309962713913
 10
-1123.266266516258
 20
100.5369158540069
 30
0.0
 10
-1123.27670645607
 20
100.6426568982435
 30
0.0
 10
-1123.297586335823
 20
100.8541389880234
 30
0.0
 10
-1123.318334553425
 20
101.0656340355836
 30
0.0
 10
-1123.32870866229
 20
101.171381560017
 30
0.0
 11
-1123.266266516258
 21
100.5369158540069
 31
0.0
 11
-1123.297553420156
 21
100.8541422261618
 31
0.0
 11
-1123.32870866229
 21
101.171381560017
 31
0.0
  0
SPLINE
  5
174
330
77
100
AcDbEntity
  8
0
  6
Continuous
 62
     1
100
AcDbSpline
210
0.0
220
0.0
230
1.0
 70
     8
 71
     3
 72
    11
 73
     7
 74
     5
 42
0.0000000001
 43
0.0000000001
 44
0.00000001
 40
0.0
 40
0.0
 40
0.0
 40
0.0
 40
0.0163745759957338
 40
0.0313662978875402
 40
0.0512183672872603
 40
0.0687785310677042
 40
0.0687785310677042
 40
0.0687785310677042
 40
0.0687785310677042
 10
-1123.32870866229
 20
101.171381560017
 30
0.0
 10
-1123.324927940339
 20
101.1674381707167
 30
0.0
 10
-1123.317685783293
 20
101.1598844164387
 30
0.0
 10
-1123.304675527662
 20
101.148826033253
 30
0.0
 10
-1123.290228158543
 20
101.1387394262462
 30
0.0
 10
-1123.278504007175
 20
101.1343665799675
 30
0.0
 10
-1123.273001047295
 20
101.1323140989923
 30
0.0
 11
-1123.32870866229
 21
101.171381560017
 31
0.0
 11
-1123.317168812598
 21
101.1597643913377
 31
0.0
 11
-1123.305770309081
 21
101.1500265351638
 31
0.0
 11
-1123.289199318245
 21
101.1390946130022
 31
0.0
 11
-1123.273001047295
 21
101.1323140989923
 31
0.0
  0
SPLINE
  5
175
330
77
100
AcDbEntity
  8
0
  6
Continuous
 62
     1
100
AcDbSpline
210
0.0
220
0.0
230
1.0
 70
     8
 71
     3
 72
     9
 73
     5
 74
     3
 42
0.0000000001
 43
0.0000000001
 44
0.00000001
 40
0.0
 40
0.0
 40
0.0
 40
0.0
 40
0.2934371263060175
 40
0.5868742491012118
 40
0.5868742491012118
 40
0.5868742491012118
 40
0.5868742491012118
 10
-1123.273001047295
 20
101.1323140989923
 30
0.0
 10
-1123.263417351597
 20
101.0349723607647
 30
0.0
 10
-1123.244249960316
 20
100.8402888854741
 30
0.0
 10
-1123.224971041393
 20
100.6456164227966
 30
0.0
 10
-1123.21533158199
 20
100.5482801920401
 30
0.0
 11
-1123.273001047295
 21
101.1323140989923
 31
0.0
 11
-1123.24422207829
 21
100.8402916374628
 31
0.0
 11
-1123.21533158199
 21
100.5482801920401
 31
0.0
  0
SPLINE
  5
176
330
77
100
AcDbEntity
  8
0
  6
Continuous
 62
     1
100
AcDbSpline
210
0.0
220
0.0
230
1.0
 70
     8
 71
     3
 72
     9
 73
     5
 74
     3
 42
0.0000000001
 43
0.0000000001
 44
0.00000001
 40
0.0
 40
0.0
 40
0.0
 40
0.0
 40
0.0436762306792869
 40
0.0963392180487906
 40
0.0963392180487906
 40
0.0963392180487906
 40
0.0963392180487906
 10
-1123.21533158199
 20
100.5482801920401
 30
0.0
 10
-1123.20007104238
 20
100.5474031981282
 30
0.0
 10
-1123.166409977077
 20
100.545468761333
 30
0.0
 10
-1123.143479782965
 20
100.5707190066789
 30
0.0
 10
-1123.130945193756
 20
100.5845218315166
 30
0.0
 11
-1123.21533158199
 21
100.5482801920401
 31
0.0
 11
-1123.171755524038
 21
100.5512365918309
 31
0.0
 11
-1123.130945193756
 21
100.5845218315166
 31
0.0
  0
SPLINE
  5
177
330
77
100
AcDbEntity
  8
0
  6
Continuous
 62
     1
100
AcDbSpline
210
0.0
220
0.0
230
1.0
 70
     8
 71
     3
 72
    12
 73
     8
 74
     6
 42
0.0000000001
 43
0.0000000001
 44
0.00000001
 40
0.0
 40
0.0
 40
0.0
 40
0.0
 40
0.035620929645519
 40
0.0805285331323468
 40
0.1852242000204129
 40
0.2642197651109522
 40
0.3054931546495948
 40
0.3054931546495948
 40
0.3054931546495948
 40
0.3054931546495948
 10
-1107.883699597097
 20
99.54212498162391
 30
0.0
 10
-1107.891714822948
 20
99.5509315473135
 30
0.0
 10
-1107.909834910967
 20
99.57084062391463
 30
0.0
 10
-1107.961173774379
 20
99.60587028745326
 30
0.0
 10
-1108.031083396253
 20
99.63786366096542
 30
0.0
 10
-1108.105254025966
 20
99.65280919864618
 30
0.0
 10
-1108.145355845517
 20
99.65377909605422
 30
0.0
 10
-1108.159117817796
 20
99.65411194133137
 30
0.0
 11
-1107.883699597097
 21
99.54212498162391
 31
0.0
 11
-1107.908567087647
 21
99.56762907036548
 31
0.0
 11
-1107.944988391151
 21
99.59390037604348
 31
0.0
 11
-1108.040367979272
 21
99.63707347918563
 31
0.0
 11
-1108.117884809582
 21
99.65228664199469
 31
0.0
 11
-1108.159117817796
 21
99.65411194133137
 31
0.0
  0
SPLINE
  5
178
330
77
100
AcDbEntity
  8
0
  6
Continuous
 62
     1
100
AcDbSpline
210
0.0
220
0.0
230
1.0
 70
     8
 71
     3
 72
     9
 73
     5
 74
     3
 42
0.0000000001
 43
0.0000000001
 44
0.00000001
 40
0.0
 40
0.0
 40
0.0
 40
0.0
 40
1.049002187498829
 40
2.0968945848341
 40
2.0968945848341
 40
2.0968945848341
 40
2.0968945848341
 10
-1108.159117817796
 20
99.65411194133137
 30
0.0
 10
-1108.508733662967
 20
99.66011598305573
 30
0.0
 10
-1109.207595477793
 20
99.67211771453822
 30
0.0
 10
-1109.906457129584
 20
99.68412893578366
 30
0.0
 10
-1110.255703017764
 20
99.69013136791202
 30
0.0
 11
-1108.159117817796
 21
99.65411194133137
 31
0.0
 11
-1109.207965312507
 21
99.67212644145707
 31
0.0
 11
-1110.255703017764
 21
99.69013136791202
 31
0.0
  0
SPLINE
  5
179
330
77
100
AcDbEntity
  8
0
  6
Continuous
 62
     1
100
AcDbSpline
210
0.0
220
0.0
230
1.0
 70
     8
 71
     3
 72
    11
 73
     7
 74
     5
 42
0.0000000001
 43
0.0000000001
 44
0.00000001
 40
0.0
 40
0.0
 40
0.0
 40
0.0
 40
2.695940744412759
 40
5.391866345286068
 40
9.135507051499493
 40
12.87914776694566
 40
12.87914776694566
 40
12.87914776694566
 40
12.87914776694566
 10
-1110.255703017764
 20
99.69013136791202
 30
0.0
 10
-1111.154217250995
 20
99.70557319969996
 30
0.0
 10
-1112.951240670355
 20
99.73645677653653
 30
0.0
 10
-1115.995960100824
 20
99.7887820365675
 30
0.0
 10
-1119.389861312524
 20
99.84710713194193
 30
0.0
 10
-1121.885253351143
 20
99.88998972295602
 30
0.0
 10
-1123.132949371991
 20
99.91143101848954
 30
0.0
 11
-1110.255703017764
 21
99.69013136791202
 31
0.0
 11
-1112.951245720431
 21
99.73645669017563
 31
0.0
 11
-1115.646773295703
 21
99.78278094292895
 31
0.0
 11
-1119.389861315396
 21
99.84710678570501
 31
0.0
 11
-1123.132949371991
 21
99.91143101848954
 31
0.0
  0
SPLINE
  5
17A
330
77
100
AcDbEntity
  8
0
  6
Continuous
 62
     3
100
AcDbSpline
210
0.0
220
0.0
230
1.0
 70
     8
 71
     3
 72
     9
 73
     5
 74
     3
 42
0.0000000001
 43
0.0000000001
 44
0.00000001
 40
0.0
 40
0.0
 40
0.0
 40
0.0
 40
0.1624269553196598
 40
0.4901368199707278
 40
0.4901368199707278
 40
0.4901368199707278
 40
0.4901368199707278
 10
-1107.659746789797
 20
99.2052805637206
 30
0.0
 10
-1107.707266124151
 20
99.23365399238668
 30
0.0
 10
-1107.850659659918
 20
99.3192731685307
 30
0.0
 10
-1107.904632486303
 20
99.48221532487858
 30
0.0
 10
-1107.940719201091
 20
99.59115990897632
 30
0.0
 11
-1107.659746789797
 21
99.2052805637206
 31
0.0
 11
-1107.792484608059
 21
99.29889246156155
 31
0.0
 11
-1107.940719201091
 21
99.59115990897632
 31
0.0
  0
SPLINE
  5
17B
330
77
100
AcDbEntity
  8
0
  6
Continuous
 62
     3
100
AcDbSpline
210
0.0
220
0.0
230
1.0
 70
     8
 71
     3
 72
    17
 73
    13
 74
    11
 42
0.0000000001
 43
0.0000000001
 44
0.00000001
 40
0.0
 40
0.0
 40
0.0
 40
0.0
 40
0.4874478238468436
 40
0.8775003018804617
 40
1.157084552511155
 40
1.680268429478585
 40
2.140751441122117
 40
2.515473082209409
 40
2.793631342780831
 40
2.948615330000077
 40
3.027657821320449
 40
3.069759034518915
 40
3.069759034518915
 40
3.069759034518915
 40
3.069759034518915
 10
-1098.745213810696
 20
68.80393707343612
 30
0.0
 10
-1098.722705978776
 20
68.64301310120467
 30
0.0
 10
-1098.682187530773
 20
68.35331884613856
 30
0.0
 10
-1098.639246879574
 20
67.96998481219092
 30
0.0
 10
-1098.60162777134
 20
67.57413491061361
 30
0.0
 10
-1098.571974119174
 20
67.15413047242417
 30
0.0
 10
-1098.558214373407
 20
66.70093218379101
 30
0.0
 10
-1098.567264760449
 20
66.33090034035075
 30
0.0
 10
-1098.596678311827
 20
66.05981682298167
 30
0.0
 10
-1098.640305642579
 20
65.89879249903929
 30
0.0
 10
-1098.690219180404
 20
65.81082817568054
 30
0.0
 10
-1098.731036634349
 20
65.80256474891198
 30
0.0
 10
-1098.745221971817
 20
65.79969295055056
 30
0.0
 11
-1098.745213810696
 21
68.80393707343612
 31
0.0
 11
-1098.680144562136
 21
68.32085180781016
 31
0.0
 11
-1098.636413496054
 21
67.93325855518641
 31
0.0
 11
-1098.610095599562
 21
67.65491574222912
 31
0.0
 11
-1098.574215630636
 21
67.13296364006982
 31
0.0
 11
-1098.561981145582
 21
66.67264318496515
 31
0.0
 11
-1098.574131989859
 21
66.29811859928016
 31
0.0
 11
-1098.609874707637
 21
66.02226632713084
 31
0.0
 11
-1098.656584778372
 21
65.87448877272465
 31
0.0
 11
-1098.704950982411
 21
65.81197136921925
 31
0.0
 11
-1098.745221971817
 21
65.79969295055056
 31
0.0
  0
SPLINE
  5
17C
330
77
100
AcDbEntity
  8
0
  6
Continuous
 62
     3
100
AcDbSpline
210
0.0
220
0.0
230
1.0
 70
     8
 71
     3
 72
    23
 73
    19
 74
    17
 42
0.0000000001
 43
0.0000000001
 44
0.00000001
 40
0.0
 40
0.0
 40
0.0
 40
0.0
 40
0.4809820515572422
 40
0.9016614535102238
 40
1.254006501125153
 40
1.529964847356158
 40
1.721467078144453
 40
2.005936697681174
 40
2.363661898164706
 40
2.767763214895249
 40
3.191434264811656
 40
3.580932110377352
 40
3.907452300176522
 40
4.16747843793293
 40
4.350597422810864
 40
4.457186223253911
 40
4.511297151701322
 40
4.538539587988252
 40
4.538539587988252
 40
4.538539587988252
 40
4.538539587988252
 10
-1097.329211252353
 20
69.01769911783819
 30
0.0
 10
-1097.315855171279
 20
68.85792791648498
 30
0.0
 10
-1097.290817514603
 20
68.55841667032766
 30
0.0
 10
-1097.260603206742
 20
68.14150051502334
 30
0.0
 10
-1097.237789498418
 20
67.79258247229295
 30
0.0
 10
-1097.221827511101
 20
67.51977845404261
 30
0.0
 10
-1097.208567271053
 20
67.2694853124109
 30
0.0
 10
-1097.195394226411
 20
66.99189682793919
 30
0.0
 10
-1097.181867467957
 20
66.64338549780487
 30
0.0
 10
-1097.171136136677
 20
66.24836419684208
 30
0.0
 10
-1097.166549976632
 20
65.84256835434391
 30
0.0
 10
-1097.170517080372
 20
65.46278819900476
 30
0.0
 10
-1097.183439122202
 20
65.13724132226464
 30
0.0
 10
-1097.204754351245
 20
64.88247919322976
 30
0.0
 10
-1097.231835343883
 20
64.6987653620294
 30
0.0
 10
-1097.263318344339
 20
64.59205459709096
 30
0.0
 10
-1097.293142306437
 20
64.5300649906615
 30
0.0
 10
-1097.32015238597
 20
64.52285446086044
 30
0.0
 10
-1097.329197130133
 20
64.52043990309332
 30
0.0
 11
-1097.329211252353
 21
69.01769911783819
 31
0.0
 11
-1097.290085700618
 21
68.53831104422592
 31
0.0
 11
-1097.259493777996
 21
68.11874544327921
 31
0.0
 11
-1097.236578312631
 21
67.76714636190115
 31
0.0
 11
-1097.220482132672
 21
67.4916578469949
 31
0.0
 11
-1097.210348066263
 21
67.3004239454635
 31
0.0
 11
-1097.196913687019
 21
67.01627172940019
 31
0.0
 11
-1097.183118107198
 21
66.65881263937953
 31
0.0
 11
-1097.17235579837
 21
66.25485466273835
 31
0.0
 11
-1097.1680212321
 21
65.83120578681334
 31
0.0
 11
-1097.172803874528
 21
65.44173730537777
 31
0.0
 11
-1097.186946900448
 21
65.11552355771482
 31
0.0
 11
-1097.210174979278
 21
64.85653697761776
 31
0.0
 11
-1097.240502200894
 21
64.67594677231371
 31
0.0
 11
-1097.272868809601
 21
64.5743909993576
 31
0.0
 11
-1097.30364404086
 21
64.52988394690044
 31
0.0
 11
-1097.329197130133
 21
64.52043990309332
 31
0.0
  0
SPLINE
  5
17D
330
77
100
AcDbEntity
  8
0
  6
Continuous
 62
     3
100
AcDbSpline
210
0.0
220
0.0
230
1.0
 70
     8
 71
     3
 72
    12
 73
     8
 74
     6
 42
0.0000000001
 43
0.0000000001
 44
0.00000001
 40
0.0
 40
0.0
 40
0.0
 40
0.0
 40
1.353095586819225
 40
3.472014222212832
 40
5.843194534348347
 40
6.98812354035881
 40
7.812898946968809
 40
7.812898946968809
 40
7.812898946968809
 40
7.812898946968809
 10
-1098.745221971817
 20
65.79969295055056
 30
0.0
 10
-1099.195979001607
 20
65.81543586956512
 30
0.0
 10
-1100.352611861428
 20
65.85583186172573
 30
0.0
 10
-1102.299156989911
 20
65.92380447469154
 30
0.0
 10
-1104.176354180865
 20
65.98938801575662
 30
0.0
 10
-1105.622435903991
 20
66.03984947761627
 30
0.0
 10
-1106.278637017764
 20
66.06180196826236
 30
0.0
 10
-1106.553408469238
 20
66.070994146684
 30
0.0
 11
-1098.745221971817
 21
65.79969295055056
 31
0.0
 11
-1100.097493101879
 21
65.84692067409974
 31
0.0
 11
-1102.215120744445
 21
65.92087573381508
 31
0.0
 11
-1104.58485628624
 21
66.00363764904338
 31
0.0
 11
-1105.729099763181
 21
66.04325196819052
 31
0.0
 11
-1106.553408469238
 21
66.070994146684
 31
0.0
  0
SPLINE
  5
17E
330
77
100
AcDbEntity
  8
0
  6
Continuous
 62
     3
100
AcDbSpline
210
0.0
220
0.0
230
1.0
 70
     8
 71
     3
 72
    15
 73
    11
 74
     9
 42
0.0000000001
 43
0.0000000001
 44
0.00000001
 40
0.0
 40
0.0
 40
0.0
 40
0.0
 40
0.2437781903810496
 40
0.4989795073318234
 40
0.7626542829734768
 40
1.031040829265214
 40
1.299950931695938
 40
1.565089547316378
 40
1.822420631590524
 40
2.06863273472243
 40
2.06863273472243
 40
2.06863273472243
 40
2.06863273472243
 10
-1097.329197130133
 20
64.52043990309332
 30
0.0
 10
-1097.410353729723
 20
64.5272429493059
 30
0.0
 10
-1097.576469820817
 20
64.54116782356233
 30
0.0
 10
-1097.821432099071
 20
64.61598803802408
 30
0.0
 10
-1098.057213040423
 20
64.73372444615475
 30
0.0
 10
-1098.271960065443
 20
64.8949503527954
 30
0.0
 10
-1098.454339745154
 20
65.09269266955734
 30
0.0
 10
-1098.59632414682
 20
65.31632576811671
 30
0.0
 10
-1098.697171941958
 20
65.5538914254857
 30
0.0
 10
-1098.729442824866
 20
65.71897419977546
 30
0.0
 10
-1098.745221971817
 20
65.79969295055056
 30
0.0
 11
-1097.329197130133
 21
64.52043990309332
 31
0.0
 11
-1097.571271731069
 21
64.5492095691897
 31
0.0
 11
-1097.815986435148
 21
64.6216141669772
 31
0.0
 11
-1098.051700630965
 21
64.73978017393299
 31
0.0
 11
-1098.266346528011
 21
64.90089652044045
 31
0.0
 11
-1098.448715256612
 21
65.09851810331439
 31
0.0
 11
-1098.591237180381
 21
65.32209356426299
 31
0.0
 11
-1098.689805536548
 21
65.55979835196469
 31
0.0
 11
-1098.745221971817
 21
65.79969295055056
 31
0.0
  0
SPLINE
  5
17F
330
77
100
AcDbEntity
  8
0
  6
Continuous
 62
     1
100
AcDbSpline
210
0.0
220
0.0
230
1.0
 70
     8
 71
     3
 72
    40
 73
    36
 74
    34
 42
0.0000000001
 43
0.0000000001
 44
0.00000001
 40
0.0
 40
0.0
 40
0.0
 40
0.0
 40
0.0706871745851439
 40
0.2135695722211569
 40
0.4772537453804102
 40
0.7146924982007605
 40
1.081412086298742
 40
1.607364248077219
 40
1.898793876568722
 40
2.352810683293313
 40
2.979663649853971
 40
3.789763636745395
 40
4.793665423978873
 40
5.684784991154923
 40
6.524198084035074
 40
7.289663079479224
 40
7.958886057420376
 40
8.509534869389803
 40
8.919248917948494
 40
10.01767679030998
 40
10.9893010803924
 40
11.8249297544661
 40
12.51530988520959
 40
13.05113439579258
 40
14.04310676081764
 40
14.84259906303735
 40
15.45966369108182
 40
15.90420595937901
 40
16.18596670271592
 40
16.71590215007615
 40
17.08341387323767
 40
17.32016900012585
 40
17.50814330040023
 40
17.66480474210914
 40
17.76630419302484
 40
17.76630419302484
 40
17.76630419302484
 40
17.76630419302484
 10
-1124.67257689436
 20
117.3956295642715
 30
0.0
 10
-1124.650243050147
 20
117.3868049444395
 30
0.0
 10
-1124.582765044658
 20
117.3601428194701
 30
0.0
 10
-1124.500920429058
 20
117.212208382134
 30
0.0
 10
-1124.415402956731
 20
117.020284014485
 30
0.0
 10
-1124.324384285549
 20
116.7437928756086
 30
0.0
 10
-1124.223153071866
 20
116.381575788933
 30
0.0
 10
-1124.13308511982
 20
115.9969072457808
 30
0.0
 10
-1124.045039348591
 20
115.5824013794868
 30
0.0
 10
-1123.957509542792
 20
115.1333739180987
 30
0.0
 10
-1123.847566125239
 20
114.5126913332545
 30
0.0
 10
-1123.71936086835
 20
113.7091945808134
 30
0.0
 10
-1123.591942809725
 20
112.8164965680772
 30
0.0
 10
-1123.475259633296
 20
111.9124983950297
 30
0.0
 10
-1123.377486669972
 20
111.0862507669623
 30
0.0
 10
-1123.295089486748
 20
110.3327002173837
 30
0.0
 10
-1123.228061249301
 20
109.6743193927957
 30
0.0
 10
-1123.176401218723
 20
109.1335831270858
 30
0.0
 10
-1123.114503983547
 20
108.450115486428
 30
0.0
 10
-1123.04596443913
 20
107.6263545323879
 30
0.0
 10
-1122.975956577054
 20
106.6603110038012
 30
0.0
 10
-1122.92395753688
 20
105.8293797298389
 30
0.0
 10
-1122.887235196434
 20
105.1430745368801
 30
0.0
 10
-1122.853681535998
 20
104.4044392674743
 30
0.0
 10
-1122.827069542013
 20
103.6290974604127
 30
0.0
 10
-1122.812875007601
 20
102.826336500224
 30
0.0
 10
-1122.812615071434
 20
102.2059512855822
 30
0.0
 10
-1122.8201730525
 20
101.7581742845138
 30
0.0
 10
-1122.834370357907
 20
101.3397303061141
 30
0.0
 10
-1122.855953443832
 20
100.9467777630612
 30
0.0
 10
-1122.894229926397
 20
100.5714727895734
 30
0.0
 10
-1122.933326226562
 20
100.3081696456374
 30
0.0
 10
-1122.981933042285
 20
100.1248903462773
 30
0.0
 10
-1123.024009896411
 20
99.97026108456878
 30
0.0
 10
-1123.102205651831
 20
99.928033403244
 30
0.0
 10
-1123.132949371991
 20
99.91143101848954
 30
0.0
 11
-1124.67257689436
 21
117.3956295642715
 31
0.0
 11
-1124.60895520828
 21
117.3648244070536
 31
0.0
 11
-1124.523580144149
 21
117.2502535644329
 31
0.0
 11
-1124.415790363527
 21
117.0096071300772
 31
0.0
 11
-1124.3393711524
 21
116.7848021801505
 31
0.0
 11
-1124.239452166076
 21
116.431957380746
 31
0.0
 11
-1124.117552116074
 21
115.9203266014833
 31
0.0
 11
-1124.056921656981
 21
115.6352736664117
 31
0.0
 11
-1123.969609589802
 21
115.1897314532452
 31
0.0
 11
-1123.85975622705
 21
114.5725792188833
 31
0.0
 11
-1123.731501881237
 21
113.7726962202256
 31
0.0
 11
-1123.588986864877
 21
112.7789617141716
 31
0.0
 11
-1123.474659225191
 21
111.8952065026973
 31
0.0
 11
-1123.375880353876
 21
111.0616256277486
 31
0.0
 11
-1123.29261162412
 21
110.3007031757897
 31
0.0
 11
-1123.224814409112
 21
109.634923233285
 31
0.0
 11
-1123.172450082041
 21
109.0867698866987
 31
0.0
 11
-1123.135480016096
 21
108.6787272224951
 31
0.0
 11
-1123.044526501835
 21
107.5840714551307
 31
0.0
 11
-1122.974390273499
 21
106.6149818459856
 31
0.0
 11
-1122.922310334338
 21
105.7809776728119
 31
0.0
 11
-1122.885525687602
 21
105.0915782133619
 31
0.0
 11
-1122.861275336539
 21
104.5563027453879
 31
0.0
 11
-1122.827912292204
 21
103.5648915893854
 31
0.0
 11
-1122.814396136353
 21
102.7655135468801
 31
0.0
 11
-1122.81465901173
 21
102.1484489748294
 31
0.0
 11
-1122.822633061081
 21
101.7039782301906
 31
0.0
 11
-1122.832250427153
 21
101.4223816699211
 31
0.0
 11
-1122.863759211506
 21
100.8933837730657
 31
0.0
 11
-1122.90212985813
 21
100.5278806128347
 31
0.0
 11
-1122.940254310023
 21
100.2942152190005
 31
0.0
 11
-1122.985648970136
 21
100.1118045219544
 31
0.0
 11
-1123.049041832586
 21
99.96854199262874
 31
0.0
 11
-1123.132949371991
 21
99.91143101848954
 31
0.0
  0
SPLINE
  5
180
330
77
100
AcDbEntity
  8
0
  6
Continuous
 62
     1
100
AcDbSpline
210
0.0
220
0.0
230
1.0
 70
     8
 71
     3
 72
    16
 73
    12
 74
    10
 42
0.0000000001
 43
0.0000000001
 44
0.00000001
 40
0.0
 40
0.0
 40
0.0
 40
0.0
 40
0.4443250058154116
 40
0.8864613496430869
 40
2.843968767469592
 40
4.582997329586802
 40
5.561086912745498
 40
6.368333278672409
 40
6.988875977258414
 40
7.34413154806951
 40
7.561362694281478
 40
7.561362694281478
 40
7.561362694281478
 40
7.561362694281478
 10
-1123.266321936108
 20
109.4636758642878
 30
0.0
 10
-1123.280747993242
 20
109.6110802006576
 30
0.0
 10
-1123.309529047448
 20
109.9051627871684
 30
0.0
 10
-1123.407582150504
 20
110.8480747347087
 30
0.0
 10
-1123.568170428421
 20
112.2183071695226
 30
0.0
 10
-1123.788614393969
 20
113.7613403231805
 30
0.0
 10
-1123.991000113729
 20
114.9182608990811
 30
0.0
 10
-1124.151346429608
 20
115.7052284896777
 30
0.0
 10
-1124.305753445609
 20
116.2774242078453
 30
0.0
 10
-1124.424802307409
 20
116.660880871146
 30
0.0
 10
-1124.530345937746
 20
116.8207072338764
 30
0.0
 10
-1124.570394663964
 20
116.8813536435457
 30
0.0
 11
-1123.266321936108
 21
109.4636758642878
 31
0.0
 11
-1123.310047802539
 21
109.9058441121276
 31
0.0
 11
-1123.355688130369
 21
110.3456184940655
 31
0.0
 11
-1123.585309334911
 21
112.2896116507588
 31
0.0
 11
-1123.835926046239
 21
114.0104868943087
 31
0.0
 11
-1124.005752804775
 21
114.9737200461305
 31
0.0
 11
-1124.172894887658
 21
115.7634733110378
 31
0.0
 11
-1124.333931564189
 21
116.3627565742616
 31
0.0
 11
-1124.457219727481
 21
116.6959330280883
 31
0.0
 11
-1124.570394663964
 21
116.8813536435457
 31
0.0
  0
SPLINE
  5
181
330
77
100
AcDbEntity
  8
0
  6
Continuous
 62
     1
100
AcDbSpline
210
0.0
220
0.0
230
1.0
 70
     8
 71
     3
 72
    12
 73
     8
 74
     6
 42
0.0000000001
 43
0.0000000001
 44
0.00000001
 40
0.0
 40
0.0
 40
0.0
 40
0.0
 40
0.0956293382381669
 40
0.2011859704560427
 40
0.4829583285385193
 40
0.9457225485762266
 40
1.58708528315649
 40
1.58708528315649
 40
1.58708528315649
 40
1.58708528315649
 10
-1124.570394663964
 20
116.8813536435457
 30
0.0
 10
-1124.600372039136
 20
116.9027304830958
 30
0.0
 10
-1124.663438744677
 20
116.9477032946766
 30
0.0
 10
-1124.785449094793
 20
116.7921772638275
 30
0.0
 10
-1124.832186363359
 20
116.52717595289
 30
0.0
 10
-1124.902464462453
 20
116.0622309001861
 30
0.0
 10
-1124.918465577298
 20
115.6957091987632
 30
0.0
 10
-1124.927760268212
 20
115.4828049129612
 30
0.0
 11
-1124.570394663964
 21
116.8813536435457
 31
0.0
 11
-1124.657561131578
 21
116.9206852752877
 31
0.0
 11
-1124.735245686221
 21
116.8492198110747
 31
0.0
 11
-1124.82178031173
 21
116.5810642212256
 31
0.0
 11
-1124.886383325464
 21
116.1228315576543
 31
0.0
 11
-1124.927760268212
 21
115.4828049129612
 31
0.0
  0
SPLINE
  5
182
330
77
100
AcDbEntity
  8
0
  6
Continuous
 62
     1
100
AcDbSpline
210
0.0
220
0.0
230
1.0
 70
     8
 71
     3
 72
    13
 73
     9
 74
     7
 42
0.0000000001
 43
0.0000000001
 44
0.00000001
 40
0.0
 40
0.0
 40
0.0
 40
0.0
 40
0.2168950927629159
 40
0.3744178725636887
 40
0.9502699888099524
 40
1.524015733278511
 40
1.799815390162156
 40
1.97485336792535
 40
1.97485336792535
 40
1.97485336792535
 40
1.97485336792535
 10
-1124.988831175544
 20
115.4833230050922
 30
0.0
 10
-1124.987049910515
 20
115.5556131442907
 30
0.0
 10
-1124.983974979433
 20
115.6804049032062
 30
0.0
 10
-1124.972093882204
 20
115.9967086498248
 30
0.0
 10
-1124.95269423644
 20
116.4353808056509
 30
0.0
 10
-1124.884280069266
 20
116.8955075982296
 30
0.0
 10
-1124.835971942801
 20
117.2522147643201
 30
0.0
 10
-1124.721907446409
 20
117.355593403969
 30
0.0
 10
-1124.677621838357
 20
117.395730221833
 30
0.0
 11
-1124.988831175544
 21
115.4833230050922
 31
0.0
 11
-1124.982948328616
 21
115.7001383029304
 31
0.0
 11
-1124.977245070251
 21
115.8575578029937
 31
0.0
 11
-1124.943099283102
 21
116.4323966717259
 31
0.0
 11
-1124.870308079306
 21
117.001506169051
 31
0.0
 11
-1124.796488931959
 21
117.2672432274793
 31
0.0
 11
-1124.677621838357
 21
117.395730221833
 31
0.0
  0
SPLINE
  5
183
330
77
100
AcDbEntity
  8
0
  6
Continuous
 62
     1
100
AcDbSpline
210
0.0
220
0.0
230
1.0
 70
     8
 71
     3
 72
    11
 73
     7
 74
     5
 42
0.0000000001
 43
0.0000000001
 44
0.00000001
 40
0.0
 40
0.0
 40
0.0
 40
0.0
 40
0.1296354559258543
 40
0.2565824595257539
 40
0.4281276191412023
 40
0.6109624338135538
 40
0.6109624338135538
 40
0.6109624338135538
 40
0.6109624338135538
 10
-1124.252966528811
 20
116.0826793315029
 30
0.0
 10
-1124.261941771311
 20
116.0403996114425
 30
0.0
 10
-1124.279706122731
 20
115.9567169917171
 30
0.0
 10
-1124.300731245641
 20
115.8155047209735
 30
0.0
 10
-1124.319989482064
 20
115.6562036637378
 30
0.0
 10
-1124.330131215519
 20
115.538503989371
 30
0.0
 10
-1124.335363627311
 20
115.4777793443254
 30
0.0
 11
-1124.252966528811
 21
116.0826793315029
 31
0.0
 11
-1124.278574131697
 21
115.955598246728
 31
0.0
 11
-1124.298049813008
 21
115.830154077631
 31
0.0
 11
-1124.318591743406
 21
115.6598432709187
 31
0.0
 11
-1124.335363627311
 21
115.4777793443254
 31
0.0
  0
SPLINE
  5
184
330
77
100
AcDbEntity
  8
0
  6
Continuous
 62
     1
100
AcDbSpline
210
0.0
220
0.0
230
1.0
 70
    24
 71
     3
 72
     9
 73
     5
 74
     3
 42
0.0000000001
 43
0.0000000001
 44
0.00000001
 40
0.0
 40
0.0
 40
0.0
 40
0.0
 40
6.971404805523981
 40
13.94280886397869
 40
13.94280886397869
 40
13.94280886397869
 40
13.94280886397869
 10
-1124.196388287603
 20
117.4041302575377
 30
0.0
 10
-1121.872940618137
 20
117.4446865391016
 30
0.0
 10
-1117.226045528191
 20
117.5257990978833
 30
0.0
 10
-1112.579150438245
 20
117.6069116566786
 30
0.0
 10
-1110.255703017764
 20
117.6474679339032
 30
0.0
 11
-1124.196388287603
 21
117.4041302575377
 31
0.0
 11
-1117.226045279206
 21
117.5257991022328
 31
0.0
 11
-1110.255703017764
 21
117.6474679339032
 31
0.0
  0
SPLINE
  5
185
330
77
100
AcDbEntity
  8
0
  6
Continuous
 62
     1
100
AcDbSpline
210
0.0
220
0.0
230
1.0
 70
     8
 71
     3
 72
     9
 73
     5
 74
     3
 42
0.0000000001
 43
0.0000000001
 44
0.00000001
 40
0.0
 40
0.0
 40
0.0
 40
0.0
 40
0.1891026234446889
 40
0.3782115747898648
 40
0.3782115747898648
 40
0.3782115747898648
 40
0.3782115747898648
 10
-1124.574567440848
 20
117.3993628229557
 30
0.0
 10
-1124.511542858481
 20
117.4004922886176
 30
0.0
 10
-1124.385491584768
 20
117.4027512577366
 30
0.0
 10
-1124.259423423078
 20
117.4036705858102
 30
0.0
 10
-1124.196388287603
 20
117.4041302575377
 30
0.0
 11
-1124.574567440848
 21
117.3993628229557
 31
0.0
 11
-1124.385489471893
 21
117.402416320887
 31
0.0
 11
-1124.196388287603
 21
117.4041302575377
 31
0.0
  0
SPLINE
  5
186
330
77
100
AcDbEntity
  8
0
  6
Continuous
 62
     1
100
AcDbSpline
210
0.0
220
0.0
230
1.0
 70
     8
 71
     3
 72
     9
 73
     5
 74
     3
 42
0.0000000001
 43
0.0000000001
 44
0.00000001
 40
0.0
 40
0.0
 40
0.0
 40
0.0
 40
0.2381322849568105
 40
0.4762645045037789
 40
0.4762645045037789
 40
0.4762645045037789
 40
0.4762645045037789
 10
-1124.67257689436
 20
117.3956295642715
 30
0.0
 10
-1124.593212852386
 20
117.3970876159101
 30
0.0
 10
-1124.434484790238
 20
117.4000037187869
 30
0.0
 10
-1124.275753781214
 20
117.4027547447467
 30
0.0
 10
-1124.196388287603
 20
117.4041302575377
 30
0.0
 11
-1124.67257689436
 21
117.3956295642715
 31
0.0
 11
-1124.434484031719
 21
117.3999624499468
 31
0.0
 11
-1124.196388287603
 21
117.4041302575377
 31
0.0
  0
SPLINE
  5
187
330
77
100
AcDbEntity
  8
0
  6
Continuous
 62
     3
100
AcDbSpline
210
0.0
220
0.0
230
1.0
 70
     8
 71
     3
 72
    26
 73
    22
 74
    20
 42
0.0000000001
 43
0.0000000001
 44
0.00000001
 40
0.0
 40
0.0
 40
0.0
 40
0.0
 40
0.1429713637944567
 40
0.4239145647057891
 40
0.8685468468157957
 40
1.58986604364826
 40
2.510236073406621
 40
3.612297539853244
 40
4.852817629098203
 40
6.202090910802674
 40
7.632860730034206
 40
9.842319098718448
 40
12.00792302774805
 40
13.37978271016754
 40
14.63389246584888
 40
15.74581374749266
 40
16.69053950660865
 40
17.43031474878786
 40
17.95281868392274
 40
18.19765615311816
 40
18.33205242981469
 40
18.33205242981469
 40
18.33205242981469
 40
18.33205242981469
 10
-1108.159256797398
 20
252.4445266501154
 30
0.0
 10
-1108.11829998305
 20
252.4175965897956
 30
0.0
 10
-1107.996861747689
 20
252.3377481187803
 30
0.0
 10
-1107.944461830779
 20
252.0279533788504
 30
0.0
 10
-1107.859462468808
 20
251.566422212376
 30
0.0
 10
-1107.81990075957
 20
250.8640532488351
 30
0.0
 10
-1107.797624890856
 20
249.9527052865187
 30
0.0
 10
-1107.810839447633
 20
248.8638485236343
 30
0.0
 10
-1107.853907325787
 20
247.6342699516009
 30
0.0
 10
-1107.927482019445
 20
246.2959114022069
 30
0.0
 10
-1108.046921202646
 20
244.6370107572088
 30
0.0
 10
-1108.223829242721
 20
242.7096317085494
 30
0.0
 10
-1108.442050488072
 20
240.8063168700293
 30
0.0
 10
-1108.657459738396
 20
239.2235365230669
 30
0.0
 10
-1108.849652856733
 20
237.992674301845
 30
0.0
 10
-1109.044772579826
 20
236.9054761910972
 30
0.0
 10
-1109.240371518006
 20
235.9963330507811
 30
0.0
 10
-1109.421558197924
 20
235.2767476539472
 30
0.0
 10
-1109.595101897745
 20
234.8167461212146
 30
0.0
 10
-1109.719068276095
 20
234.5235117347799
 30
0.0
 10
-1109.834350983339
 20
234.4652076067449
 30
0.0
 10
-1109.875205909328
 20
234.4445452637735
 30
0.0
 11
-1108.159256797398
 21
252.4445266501154
 31
0.0
 11
-1108.047290546942
 21
252.3556201282841
 31
0.0
 11
-1107.95450964851
 21
252.0904394596364
 31
0.0
 11
-1107.882462419057
 21
251.6516831912795
 31
0.0
 11
-1107.827111930976
 21
250.9324907919953
 31
0.0
 11
-1107.804196750641
 21
250.0124060751416
 31
0.0
 11
-1107.814227194002
 21
248.9103902558212
 31
0.0
 11
-1107.856580632424
 21
247.6705933861388
 31
0.0
 11
-1107.929683092797
 21
246.3233018738784
 31
0.0
 11
-1108.031954548504
 21
244.896191918419
 31
0.0
 11
-1108.233535268714
 21
242.6959484100344
 31
0.0
 11
-1108.481449558704
 21
240.5445816625348
 31
0.0
 11
-1108.66738429288
 21
239.1853806976752
 31
0.0
 11
-1108.861961039607
 21
237.9464573066101
 31
0.0
 11
-1109.061245641188
 21
236.8525402237629
 31
0.0
 11
-1109.261144528057
 21
235.9292054009788
 31
0.0
 11
-1109.45372576465
 21
235.2149366306593
 31
0.0
 11
-1109.635018180659
 21
234.7248923243678
 31
0.0
 11
-1109.76057193216
 21
234.5146980289979
 31
0.0
 11
-1109.875205909328
 21
234.4445452637735
 31
0.0
  0
SPLINE
  5
188
330
77
100
AcDbEntity
  8
0
  6
Continuous
 62
     1
100
AcDbSpline
210
0.0
220
0.0
230
1.0
 70
     8
 71
     3
 72
    32
 73
    28
 74
    26
 42
0.0000000001
 43
0.0000000001
 44
0.00000001
 40
0.0
 40
0.0
 40
0.0
 40
0.0
 40
0.1910743118335609
 40
0.4744374433966587
 40
1.107501984141012
 40
1.699289927051674
 40
2.652363835019088
 40
3.581867559562563
 40
4.366039780832966
 40
4.882611800562707
 40
6.147546305727075
 40
7.278880015094337
 40
8.208490395877126
 40
8.868081882057417
 40
9.570154097087052
 40
10.54724638725097
 40
11.7270591838538
 40
13.03748770232172
 40
14.29029763378057
 40
15.22253127744734
 40
15.85914447905956
 40
16.2246629932981
 40
16.72855617680295
 40
17.08195534694948
 40
17.31341289170995
 40
17.56876047241832
 40
17.75912148363279
 40
17.75912148363279
 40
17.75912148363279
 40
17.75912148363279
 10
-1123.13447011081
 20
252.1846997203133
 30
0.0
 10
-1123.086675650975
 20
252.1402120043336
 30
0.0
 10
-1122.968002025436
 20
252.0297490225263
 30
0.0
 10
-1122.919303133507
 20
251.6447540281887
 30
0.0
 10
-1122.850893478021
 20
251.1570257559683
 30
0.0
 10
-1122.820866603607
 20
250.4273250239897
 30
0.0
 10
-1122.808676704239
 20
249.6042061194879
 30
0.0
 10
-1122.821148213658
 20
248.7148005272683
 30
0.0
 10
-1122.843140488727
 20
247.9717963192949
 30
0.0
 10
-1122.8779056787
 20
247.1172471211001
 30
0.0
 10
-1122.929018201766
 20
246.1476112105729
 30
0.0
 10
-1123.002903666551
 20
245.041420516593
 30
0.0
 10
-1123.073001909072
 20
244.1372749649311
 30
0.0
 10
-1123.138304726284
 20
243.3763084430197
 30
0.0
 10
-1123.210105116059
 20
242.6000305942595
 30
0.0
 10
-1123.305935172068
 20
241.6518526479082
 30
0.0
 10
-1123.434974354167
 20
240.5032699996018
 30
0.0
 10
-1123.592263965389
 20
239.2654810303018
 30
0.0
 10
-1123.760104152379
 20
238.1124003075115
 30
0.0
 10
-1123.915504908026
 20
237.1846699255207
 30
0.0
 10
-1124.03625945986
 20
236.5512902574572
 30
0.0
 10
-1124.141097093231
 20
236.0601829752165
 30
0.0
 10
-1124.236618465244
 20
235.6644195669348
 30
0.0
 10
-1124.333623076052
 20
235.3131283931562
 30
0.0
 10
-1124.429311901827
 20
235.0527689460923
 30
0.0
 10
-1124.503281373438
 20
234.8295142102258
 30
0.0
 10
-1124.625290305579
 20
234.7395144122742
 30
0.0
 10
-1124.677400011608
 20
234.7010757264206
 30
0.0
 11
-1123.13447011081
 21
252.1846997203133
 31
0.0
 11
-1123.006951643999
 21
252.0424027306585
 31
0.0
 11
-1122.934558692827
 21
251.7684430165583
 31
0.0
 11
-1122.859351290767
 21
251.139861630083
 31
0.0
 11
-1122.827856239814
 21
250.5489123673371
 31
0.0
 11
-1122.813194135161
 21
249.5959512470728
 31
0.0
 11
-1122.82444159885
 21
248.6665155750111
 31
0.0
 11
-1122.847523330064
 21
247.8826831271651
 31
0.0
 11
-1122.868364027986
 21
247.3665316795474
 31
0.0
 11
-1122.93447950418
 21
246.1033262148018
 31
0.0
 11
-1123.009590316899
 21
244.9744886145406
 31
0.0
 11
-1123.081446173691
 21
244.0476595062883
 31
0.0
 11
-1123.137796782105
 21
243.3904795175692
 31
0.0
 11
-1123.202489353165
 21
242.6913942106386
 31
0.0
 11
-1123.300776443693
 21
241.7192579077811
 31
0.0
 11
-1123.432799833398
 21
240.5468552211591
 31
0.0
 11
-1123.598701301993
 21
239.2469707629352
 31
0.0
 11
-1123.780566785691
 21
238.007431465373
 31
0.0
 11
-1123.935858417782
 21
237.0882230693132
 31
0.0
 11
-1124.056089008675
 21
236.4630663101876
 31
0.0
 11
-1124.132771368779
 21
236.1056819234272
 31
0.0
 11
-1124.251626788297
 21
235.6160067968035
 31
0.0
 11
-1124.349781493884
 21
235.2765121322928
 31
0.0
 11
-1124.426078985919
 21
235.0579914519539
 31
0.0
 11
-1124.534445808564
 21
234.8267793875553
 31
0.0
 11
-1124.677400011608
 21
234.7010757264206
 31
0.0
  0
SPLINE
  5
189
330
77
100
AcDbEntity
  8
0
  6
Continuous
 62
     1
100
AcDbSpline
210
0.0
220
0.0
230
1.0
 70
     8
 71
     3
 72
    16
 73
    12
 74
    10
 42
0.0000000001
 43
0.0000000001
 44
0.00000001
 40
0.0
 40
0.0
 40
0.0
 40
0.0
 40
0.217403616349935
 40
0.5729969929959029
 40
1.194799608316388
 40
2.003809501779163
 40
2.984084719064032
 40
4.726552486945692
 40
6.687522465683885
 40
7.123385572498077
 40
7.561352329080806
 40
7.561352329080806
 40
7.561352329080806
 40
7.561352329080806
 10
-1124.570333935
 20
235.2173128068427
 30
0.0
 10
-1124.530258484968
 20
235.2780107452567
 30
0.0
 10
-1124.42463415016
 20
235.4379884713688
 30
0.0
 10
-1124.305448941746
 20
235.8220268710828
 30
0.0
 10
-1124.150821240975
 20
236.3953193317994
 30
0.0
 10
-1123.99023286038
 20
237.1840128243963
 30
0.0
 10
-1123.787575664099
 20
238.3433851841211
 30
0.0
 10
-1123.566905212544
 20
239.8894468953515
 30
0.0
 10
-1123.406477320686
 20
241.2599092708252
 30
0.0
 10
-1123.308846518289
 20
242.1997921336685
 30
0.0
 10
-1123.280482867554
 20
242.4896849373807
 30
0.0
 10
-1123.266266900994
 20
242.634980281837
 30
0.0
 11
-1124.570333935
 21
235.2173128068427
 31
0.0
 11
-1124.457084540278
 21
235.4028900333474
 31
0.0
 11
-1124.333711283288
 21
235.7363951891906
 31
0.0
 11
-1124.17241752091
 21
236.3369139771043
 31
0.0
 11
-1124.005013359315
 21
237.1284143589119
 31
0.0
 11
-1123.83493495521
 21
238.0938224788694
 31
0.0
 11
-1123.584051298667
 21
239.818134316382
 31
0.0
 11
-1123.354294663911
 21
241.7655980891639
 31
0.0
 11
-1123.309349672186
 21
242.199137701657
 31
0.0
 11
-1123.266266900994
 21
242.634980281837
 31
0.0
  0
SPLINE
  5
18A
330
77
100
AcDbEntity
  8
0
  6
Continuous
 62
     1
100
AcDbSpline
210
0.0
220
0.0
230
1.0
 70
     8
 71
     3
 72
    14
 73
    10
 74
     8
 42
0.0000000001
 43
0.0000000001
 44
0.00000001
 40
0.0
 40
0.0
 40
0.0
 40
0.0
 40
0.03783382675391
 40
0.1038326961357302
 40
0.2246807488879135
 40
0.4283905531461795
 40
0.7419831867049447
 40
1.341798681626177
 40
1.975770850222713
 40
1.975770850222713
 40
1.975770850222713
 40
1.975770850222713
 10
-1124.677400011608
 20
234.7010757264206
 30
0.0
 10
-1124.690050815832
 20
234.7035589226695
 30
0.0
 10
-1124.724770198553
 20
234.7103739076624
 30
0.0
 10
-1124.774110290408
 20
234.7735605250722
 30
0.0
 10
-1124.824429094302
 20
234.8920096680355
 30
0.0
 10
-1124.875540670861
 20
235.1003489603067
 30
0.0
 10
-1124.929969734974
 20
235.4682936930182
 30
0.0
 10
-1124.969968068086
 20
235.9833280119482
 30
0.0
 10
-1124.982285767334
 20
236.3943552821523
 30
0.0
 10
-1124.988615121027
 20
236.6055584393477
 30
0.0
 11
-1124.677400011608
 21
234.7010757264206
 31
0.0
 11
-1124.713770148444
 21
234.7114974150238
 31
0.0
 11
-1124.75994947535
 21
234.7586495149373
 31
0.0
 11
-1124.811559884296
 21
234.8679226476936
 31
0.0
 11
-1124.864223267255
 21
235.0647074348249
 31
0.0
 11
-1124.913561516198
 21
235.3743944978636
 31
0.0
 11
-1124.964458714961
 21
235.9720466568204
 31
0.0
 11
-1124.988615121027
 21
236.6055584393477
 31
0.0
  0
SPLINE
  5
18B
330
77
100
AcDbEntity
  8
0
  6
Continuous
 62
     1
100
AcDbSpline
210
0.0
220
0.0
230
1.0
 70
     8
 71
     3
 72
    12
 73
     8
 74
     6
 42
0.0000000001
 43
0.0000000001
 44
0.00000001
 40
0.0
 40
0.0
 40
0.0
 40
0.0
 40
0.6360118176425619
 40
1.095339158046083
 40
1.37562127074213
 40
1.48155127367451
 40
1.577311701179192
 40
1.577311701179192
 40
1.577311701179192
 40
1.577311701179192
 10
-1124.927349997876
 20
236.6060797814627
 30
0.0
 10
-1124.917988224714
 20
236.3949722273914
 30
0.0
 10
-1124.901865384779
 20
236.0314029286467
 30
0.0
 10
-1124.831949013593
 20
235.5698134654121
 30
0.0
 10
-1124.785104728903
 20
235.3065186029871
 30
0.0
 10
-1124.663651612789
 20
235.1509026820779
 30
0.0
 10
-1124.600376345301
 20
235.1959329325935
 30
0.0
 10
-1124.570333935
 20
235.2173128068427
 30
0.0
 11
-1124.927349997876
 21
236.6060797814627
 31
0.0
 11
-1124.885930727649
 21
235.9714180792663
 31
0.0
 11
-1124.821543532116
 21
235.5166259347722
 31
0.0
 11
-1124.735457621359
 21
235.2498914625596
 31
0.0
 11
-1124.657654416479
 21
235.1780038639653
 31
0.0
 11
-1124.570333935
 21
235.2173128068427
 31
0.0
  0
SPLINE
  5
18C
330
77
100
AcDbEntity
  8
0
  6
Continuous
 62
     1
100
AcDbSpline
210
0.0
220
0.0
230
1.0
 70
     8
 71
     3
 72
    11
 73
     7
 74
     5
 42
0.0000000001
 43
0.0000000001
 44
0.00000001
 40
0.0
 40
0.0
 40
0.0
 40
0.0
 40
0.2007989668003084
 40
0.3445865252784625
 40
0.4828302050251589
 40
0.6012484160649169
 40
0.6012484160649169
 40
0.6012484160649169
 40
0.6012484160649169
 10
-1124.334563585851
 20
236.6111241596027
 30
0.0
 10
-1124.328712182934
 20
236.5444401287941
 30
0.0
 10
-1124.318670723902
 20
236.4300051850587
 30
0.0
 10
-1124.298871360956
 20
236.2702736638407
 30
0.0
 10
-1124.2790641003
 20
236.1382015694381
 30
0.0
 10
-1124.261171780987
 20
236.0545216487651
 30
0.0
 10
-1124.252916654221
 20
236.0159135543742
 30
0.0
 11
-1124.334563585851
 21
236.6111241596027
 31
0.0
 11
-1124.315620897986
 21
236.4112206837837
 31
0.0
 11
-1124.298024162635
 21
236.2685139324434
 31
0.0
 11
-1124.276575715388
 21
236.1319442465662
 31
0.0
 11
-1124.252916654221
 21
236.0159135543742
 31
0.0
  0
SPLINE
  5
18D
330
77
100
AcDbEntity
  8
0
  6
Continuous
 62
     1
100
AcDbSpline
210
0.0
220
0.0
230
1.0
 70
     8
 71
     3
 72
    11
 73
     7
 74
     5
 42
0.0000000001
 43
0.0000000001
 44
0.00000001
 40
0.0
 40
0.0
 40
0.0
 40
0.0
 40
0.1196109298685837
 40
0.2394840666398731
 40
0.4169615182385712
 40
0.5943326216998439
 40
0.5943326216998439
 40
0.5943326216998439
 40
0.5943326216998439
 10
-1123.32870866229
 20
242.6360701844365
 30
0.0
 10
-1123.324850174935
 20
242.6757533588173
 30
0.0
 10
-1123.317124741785
 20
242.7552066996477
 30
0.0
 10
-1123.303922685598
 20
242.8935654835529
 30
0.0
 10
-1123.289124859517
 20
243.0511127855269
 30
0.0
 10
-1123.278374577416
 20
243.1689061422119
 30
0.0
 10
-1123.273001047295
 20
243.2277851692157
 30
0.0
 11
-1123.32870866229
 21
242.6360701844365
 31
0.0
 11
-1123.317168812598
 21
242.7551231407757
 31
0.0
 11
-1123.305770309081
 21
242.8744531162093
 31
0.0
 11
-1123.289199318245
 21
243.0511552613255
 31
0.0
 11
-1123.273001047295
 21
243.2277851692157
 31
0.0
  0
SPLINE
  5
18E
330
77
100
AcDbEntity
  8
0
  6
Continuous
 62
     1
100
AcDbSpline
210
0.0
220
0.0
230
1.0
 70
     8
 71
     3
 72
    11
 73
     7
 74
     5
 42
0.0000000001
 43
0.0000000001
 44
0.00000001
 40
0.0
 40
0.0
 40
0.0
 40
0.0
 40
1.40386364596253
 40
2.807727291925813
 40
6.551917652004491
 40
10.29716665680437
 40
10.29716665680437
 40
10.29716665680437
 40
10.29716665680437
 10
-1118.454873285948
 20
252.2658586202722
 30
0.0
 10
-1117.986989097579
 20
252.2739731677847
 30
0.0
 10
-1117.051220720839
 20
252.2902022628097
 30
0.0
 10
-1114.867576562163
 20
252.3280742869595
 30
0.0
 10
-1111.903587809485
 20
252.379470922148
 30
0.0
 10
-1109.407484744202
 20
252.4228393640591
 30
0.0
 10
-1108.159256797398
 20
252.4445266501154
 30
0.0
 11
-1118.454873285948
 21
252.2658586202722
 31
0.0
 11
-1117.051220722579
 21
252.2902023628428
 31
0.0
 11
-1115.647568159213
 21
252.3145461056535
 31
0.0
 11
-1111.903941007166
 21
252.3794860699285
 31
0.0
 11
-1108.159256797398
 21
252.4445266501154
 31
0.0
  0
SPLINE
  5
18F
330
77
100
AcDbEntity
  8
0
  6
Continuous
 62
     1
100
AcDbSpline
210
0.0
220
0.0
230
1.0
 70
     8
 71
     3
 72
     9
 73
     5
 74
     3
 42
0.0000000001
 43
0.0000000001
 44
0.00000001
 40
0.0
 40
0.0
 40
0.0
 40
0.0
 40
2.340150273502841
 40
4.680300547005688
 40
4.680300547005688
 40
4.680300547005688
 40
4.680300547005688
 10
-1123.13447011081
 20
252.1846997203133
 30
0.0
 10
-1122.354537306664
 20
252.1982262034692
 30
0.0
 10
-1120.79467169837
 20
252.2252791697812
 30
0.0
 10
-1119.234806090089
 20
252.2523321367752
 30
0.0
 10
-1118.454873285948
 20
252.2658586202722
 30
0.0
 11
-1123.13447011081
 21
252.1846997203133
 31
0.0
 11
-1120.794671698373
 21
252.2252791699517
 31
0.0
 11
-1118.454873285948
 21
252.2658586202722
 31
0.0
  0
SPLINE
  5
190
330
77
100
AcDbEntity
  8
0
  6
Continuous
 62
     1
100
AcDbSpline
210
0.0
220
0.0
230
1.0
 70
     8
 71
     3
 72
     9
 73
     5
 74
     3
 42
0.0000000001
 43
0.0000000001
 44
0.00000001
 40
0.0
 40
0.0
 40
0.0
 40
0.0
 40
2.339362580109118
 40
4.678737093518462
 40
4.678737093518462
 40
4.678737093518462
 40
4.678737093518462
 10
-1123.132949371992
 20
252.1872253859083
 30
0.0
 10
-1122.353277551896
 20
252.2006604182148
 30
0.0
 10
-1120.793929934527
 20
252.2275305513612
 30
0.0
 10
-1119.234560161219
 20
252.253082575578
 30
0.0
 10
-1118.454873285948
 20
252.2658586202722
 30
0.0
 11
-1123.132949371992
 21
252.1872253859083
 31
0.0
 11
-1120.793928372747
 21
252.2272009572764
 31
0.0
 11
-1118.454873285948
 21
252.2658586202722
 31
0.0
  0
SPLINE
  5
191
330
77
100
AcDbEntity
  8
0
  6
Continuous
 62
     1
100
AcDbSpline
210
0.0
220
0.0
230
1.0
 70
     8
 71
     3
 72
    17
 73
    13
 74
    11
 42
0.0000000001
 43
0.0000000001
 44
0.00000001
 40
0.0
 40
0.0
 40
0.0
 40
0.0
 40
1.288601713134052
 40
2.554121558735903
 40
3.796408098024732
 40
4.937969869093315
 40
5.955836765144987
 40
6.819428391840888
 40
7.503238318351817
 40
7.995801180823445
 40
8.193189235893032
 40
8.322101645101023
 40
8.322101645101023
 40
8.322101645101023
 40
8.322101645101023
 10
-1123.215331581991
 20
243.228791805476
 30
0.0
 10
-1123.178313711946
 20
243.6567348446476
 30
0.0
 10
-1123.1049410484
 20
244.5049554632596
 30
0.0
 10
-1123.018261038682
 20
245.7675134580555
 30
0.0
 10
-1122.952296486805
 20
246.9822400874429
 30
0.0
 10
-1122.911172387019
 20
248.1154249790075
 30
0.0
 10
-1122.895719849152
 20
249.1232148821253
 30
0.0
 10
-1122.907346777877
 20
249.9779882876558
 30
0.0
 10
-1122.941368848622
 20
250.6583399267537
 30
0.0
 10
-1122.999169296944
 20
251.1113793481264
 30
0.0
 10
-1123.056206024803
 20
251.3813144098008
 30
0.0
 10
-1123.109809369953
 20
251.4765178387376
 30
0.0
 10
-1123.130986588871
 20
251.5141301155583
 30
0.0
 11
-1123.215331581991
 21
243.228791805476
 31
0.0
 11
-1123.108110483052
 21
244.5129249804365
 31
0.0
 11
-1123.020768180137
 21
245.775427179141
 31
0.0
 11
-1122.954351341232
 21
247.0159370135269
 31
0.0
 11
-1122.91388782721
 21
248.1567814293866
 31
0.0
 11
-1122.90024189879
 21
249.1745568499561
 31
0.0
 11
-1122.91401523169
 21
250.0380386349406
 31
0.0
 11
-1122.954653402025
 21
250.7206399495502
 31
0.0
 11
-1123.021286669443
 21
251.2086749699735
 31
0.0
 11
-1123.072274034396
 21
251.3993640700796
 31
0.0
 11
-1123.130986588871
 21
251.5141301155583
 31
0.0
  0
SPLINE
  5
192
330
77
100
AcDbEntity
  8
0
  6
Continuous
 62
     1
100
AcDbSpline
210
0.0
220
0.0
230
1.0
 70
     8
 71
     3
 72
     9
 73
     5
 74
     3
 42
0.0000000001
 43
0.0000000001
 44
0.00000001
 40
0.0
 40
0.0
 40
0.0
 40
0.0
 40
0.2934362704363715
 40
0.5868725443774115
 40
0.5868725443774115
 40
0.5868725443774115
 40
0.5868725443774115
 10
-1123.215383506049
 20
251.5503766595398
 30
0.0
 10
-1123.225022341772
 20
251.4530406525295
 30
0.0
 10
-1123.244300013333
 20
251.2583686373462
 30
0.0
 10
-1123.26346614596
 20
251.0636856091275
 30
0.0
 10
-1123.273049212331
 20
250.9663440944368
 30
0.0
 11
-1123.215383506049
 21
251.5503766595398
 31
0.0
 11
-1123.244272128485
 21
251.2583658852499
 31
0.0
 11
-1123.273049212331
 21
250.9663440944368
 31
0.0
  0
SPLINE
  5
193
330
77
100
AcDbEntity
  8
0
  6
Continuous
 62
     1
100
AcDbSpline
210
0.0
220
0.0
230
1.0
 70
     8
 71
     3
 72
     9
 73
     5
 74
     3
 42
0.0000000001
 43
0.0000000001
 44
0.00000001
 40
0.0
 40
0.0
 40
0.0
 40
0.0
 40
0.2478337609790187
 40
0.5528291205705959
 40
0.5528291205705959
 40
0.5528291205705959
 40
0.5528291205705959
 10
-1122.961873391169
 20
250.7954688507275
 30
0.0
 10
-1122.98920212683
 20
250.7174756906912
 30
0.0
 10
-1123.050162832274
 20
250.5435006442606
 30
0.0
 10
-1123.097239239127
 20
250.3652462989457
 30
0.0
 10
-1123.123211253086
 20
250.2669035269659
 30
0.0
 11
-1122.961873391169
 21
250.7954688507275
 31
0.0
 11
-1123.041069220041
 21
250.5606293443188
 31
0.0
 11
-1123.123211253086
 21
250.2669035269659
 31
0.0
  0
SPLINE
  5
194
330
77
100
AcDbEntity
  8
0
  6
Continuous
 62
     1
100
AcDbSpline
210
0.0
220
0.0
230
1.0
 70
     8
 71
     3
 72
     9
 73
     5
 74
     3
 42
0.0000000001
 43
0.0000000001
 44
0.00000001
 40
0.0
 40
0.0
 40
0.0
 40
0.0
 40
0.0526690460731043
 40
0.0963511335951333
 40
0.0963511335951333
 40
0.0963511335951333
 40
0.0963511335951333
 10
-1123.130986588871
 20
251.5141301155583
 30
0.0
 10
-1123.143522651691
 20
251.5279344043507
 30
0.0
 10
-1123.166455739596
 20
251.5531875458597
 30
0.0
 10
-1123.200120935071
 20
251.551253489918
 30
0.0
 10
-1123.215383506049
 20
251.5503766595398
 30
0.0
 11
-1123.130986588871
 21
251.5141301155583
 31
0.0
 11
-1123.171801654051
 21
251.5474191357999
 31
0.0
 11
-1123.215383506049
 21
251.5503766595398
 31
0.0
  0
SPLINE
  5
195
330
77
100
AcDbEntity
  8
0
  6
Continuous
 62
     1
100
AcDbSpline
210
0.0
220
0.0
230
1.0
 70
     8
 71
     3
 72
    22
 73
    18
 74
    16
 42
0.0000000001
 43
0.0000000001
 44
0.00000001
 40
0.0
 40
0.0
 40
0.0
 40
0.0
 40
0.0091514981585367
 40
0.0149518101484915
 40
0.0179553507702297
 40
0.0192775408042628
 40
0.0205997308385181
 40
0.0311788151639159
 40
0.0481062231410147
 40
0.069498822615166
 40
0.0935303649455898
 40
0.1285187360495403
 40
0.1682952425734094
 40
0.2120575065532984
 40
0.2591470801896318
 40
0.3091069312774424
 40
0.3617410019325872
 40
0.3617410019325872
 40
0.3617410019325872
 40
0.3617410019325872
 10
-1109.573644107793
 20
234.3287920194959
 30
0.0
 10
-1109.572662617498
 20
234.3256881207864
 30
0.0
 10
-1109.571059048738
 20
234.3206169397164
 30
0.0
 10
-1109.570313238718
 20
234.3162271071086
 30
0.0
 10
-1109.567876501382
 20
234.310839866513
 30
0.0
 10
-1109.5700772391
 20
234.3120782311949
 30
0.0
 10
-1109.574041722177
 20
234.3132820276504
 30
0.0
 10
-1109.579322117745
 20
234.3228652992591
 30
0.0
 10
-1109.59150341836
 20
234.3330008142931
 30
0.0
 10
-1109.606446287216
 20
234.3477277812954
 30
0.0
 10
-1109.627166123017
 20
234.3646867323931
 30
0.0
 10
-1109.654414684651
 20
234.3833203375582
 30
0.0
 10
-1109.689182945372
 20
234.4022031349869
 30
0.0
 10
-1109.729337115668
 20
234.4192514975319
 30
0.0
 10
-1109.774292246482
 20
234.4329678253944
 30
0.0
 10
-1109.823429361069
 20
234.4426106431081
 30
0.0
 10
-1109.857649729819
 20
234.4438892805374
 30
0.0
 10
-1109.875205909328
 20
234.4445452637735
 30
0.0
 11
-1109.573644107793
 21
234.3287920194959
 31
0.0
 11
-1109.571067712256
 21
234.3200106696804
 31
0.0
 11
-1109.56943620147
 21
234.3144445407082
 31
0.0
 11
-1109.568786372599
 21
234.3115121391829
 31
0.0
 11
-1109.570017841159
 21
234.3119934620187
 31
0.0
 11
-1109.571249309719
 21
234.3124747848546
 31
0.0
 11
-1109.578427648332
 21
234.3202457873585
 31
0.0
 11
-1109.590320384213
 21
234.3322915324205
 31
0.0
 11
-1109.605995341804
 21
234.3468496578761
 31
0.0
 11
-1109.624520345548
 21
234.3621578015604
 31
0.0
 11
-1109.653381136722
 21
234.3819376105916
 31
0.0
 11
-1109.688280003108
 21
234.4010226727142
 31
0.0
 11
-1109.728564429133
 21
234.4181194785108
 31
0.0
 11
-1109.773581899226
 21
234.4319345185644
 31
0.0
 11
-1109.822679897815
 21
234.4411742834577
 31
0.0
 11
-1109.875205909328
 21
234.4445452637735
 31
0.0
  0
SPLINE
  5
196
330
77
100
AcDbEntity
  8
0
  6
Continuous
 62
     1
100
AcDbSpline
210
0.0
220
0.0
230
1.0
 70
     8
 71
     3
 72
    11
 73
     7
 74
     5
 42
0.0000000001
 43
0.0000000001
 44
0.00000001
 40
0.0
 40
0.0
 40
0.0
 40
0.0
 40
3.701104211767424
 40
7.402208423192399
 40
11.10331263426487
 40
14.80441684497683
 40
14.80441684497683
 40
14.80441684497683
 40
14.80441684497683
 10
-1109.875205909328
 20
234.4445452637735
 30
0.0
 10
-1111.108722084326
 20
234.4659228234667
 30
0.0
 10
-1113.575754434208
 20
234.5086779428511
 30
0.0
 10
-1117.276302959666
 20
234.5728105752233
 30
0.0
 10
-1120.976851485327
 20
234.6369431755664
 30
0.0
 10
-1123.443883836221
 20
234.67969820947
 30
0.0
 10
-1124.677400011608
 20
234.7010757264206
 30
0.0
 11
-1109.875205909328
 21
234.4445452637735
 31
0.0
 11
-1113.575754434457
 21
234.5086779350695
 31
0.0
 11
-1117.276302959876
 21
234.5728105698881
 31
0.0
 11
-1120.97685148559
 21
234.6369431673211
 31
0.0
 11
-1124.677400011608
 21
234.7010757264206
 31
0.0
  0
SPLINE
  5
197
330
77
100
AcDbEntity
  8
0
  6
Continuous
 62
     1
100
AcDbSpline
210
0.0
220
0.0
230
1.0
 70
     8
 71
     3
 72
    12
 73
     8
 74
     6
 42
0.0000000001
 43
0.0000000001
 44
0.00000001
 40
0.0
 40
0.0
 40
0.0
 40
0.0
 40
0.0688391608817971
 40
0.1585933181984716
 40
0.4487689874703722
 40
0.8544045396335355
 40
1.372440814318946
 40
1.372440814318946
 40
1.372440814318946
 40
1.372440814318946
 10
-1123.266321542597
 20
251.5617461986923
 30
0.0
 10
-1123.281480397931
 20
251.5444447673729
 30
0.0
 10
-1123.31640373425
 20
251.5045853128505
 30
0.0
 10
-1123.388937425697
 20
251.3728144986618
 30
0.0
 10
-1123.484209924223
 20
251.1284687970597
 30
0.0
 10
-1123.598752066327
 20
250.7400232585833
 30
0.0
 10
-1123.668704949225
 20
250.4401522583521
 30
0.0
 10
-1123.707937639675
 20
250.2719712536592
 30
0.0
 11
-1123.266321542597
 21
251.5617461986923
 31
0.0
 11
-1123.31004775335
 21
251.5085780826441
 31
0.0
 11
-1123.355688130369
 21
251.4312944185151
 31
0.0
 11
-1123.466949900904
 21
251.1632967740205
 31
0.0
 11
-1123.584827024584
 21
250.7751664030215
 31
0.0
 11
-1123.707937639675
 21
250.2719712536592
 31
0.0
  0
SPLINE
  5
198
330
77
100
AcDbEntity
  8
0
  6
Continuous
 62
     1
100
AcDbSpline
210
0.0
220
0.0
230
1.0
 70
     8
 71
     3
 72
    11
 73
     7
 74
     5
 42
0.0000000001
 43
0.0000000001
 44
0.00000001
 40
0.0
 40
0.0
 40
0.0
 40
0.0
 40
0.0163747887286383
 40
0.0313667957303475
 40
0.0512198034202462
 40
0.068781028287789
 40
0.068781028287789
 40
0.068781028287789
 40
0.068781028287789
 10
-1123.328760024708
 20
250.9272768873295
 30
0.0
 10
-1123.324979150885
 20
250.9312202295206
 30
0.0
 10
-1123.317736682061
 20
250.9387739153148
 30
0.0
 10
-1123.30472573757
 20
250.9498322309507
 30
0.0
 10
-1123.290277445003
 20
250.9599188494551
 30
0.0
 10
-1123.27855255659
 20
250.9642916299874
 30
0.0
 10
-1123.273049212331
 20
250.9663440944368
 30
0.0
 11
-1123.328760024708
 21
250.9272768873295
 31
0.0
 11
-1123.317219716959
 21
250.9388939008424
 31
0.0
 11
-1123.305820719921
 21
250.9486316182591
 31
0.0
 11
-1123.289248637324
 21
250.9595635893858
 31
0.0
 11
-1123.273049212331
 21
250.9663440944368
 31
0.0
  0
SPLINE
  5
199
330
77
100
AcDbEntity
  8
0
  6
Continuous
 62
     1
100
AcDbSpline
210
0.0
220
0.0
230
1.0
 70
     8
 71
     3
 72
     9
 73
     5
 74
     3
 42
0.0000000001
 43
0.0000000001
 44
0.00000001
 40
0.0
 40
0.0
 40
0.0
 40
0.0
 40
0.3187671107620738
 40
0.6375342254541805
 40
0.6375342254541805
 40
0.6375342254541805
 40
0.6375342254541805
 10
-1123.266321542597
 20
251.5617461986923
 30
0.0
 10
-1123.276760884131
 20
251.4560045545715
 30
0.0
 10
-1123.297639567327
 20
251.244521265026
 30
0.0
 10
-1123.318386538872
 20
251.033025013663
 30
0.0
 10
-1123.328760024708
 20
250.9272768873295
 30
0.0
 11
-1123.266321542597
 21
251.5617461986923
 31
0.0
 11
-1123.297606639286
 21
251.2445180258754
 31
0.0
 11
-1123.328760024708
 21
250.9272768873295
 31
0.0
  0
SPLINE
  5
19A
330
77
100
AcDbEntity
  8
0
  6
Continuous
 62
     1
100
AcDbSpline
210
0.0
220
0.0
230
1.0
 70
     8
 71
     3
 72
    12
 73
     8
 74
     6
 42
0.0000000001
 43
0.0000000001
 44
0.00000001
 40
0.0
 40
0.0
 40
0.0
 40
0.0
 40
0.6926964621702565
 40
1.278458732458623
 40
1.59679898239972
 40
1.881248443403274
 40
2.05195838539934
 40
2.05195838539934
 40
2.05195838539934
 40
2.05195838539934
 10
-1123.784218392065
 20
250.2726323663285
 30
0.0
 10
-1123.737122135467
 20
250.4983830356713
 30
0.0
 10
-1123.650200050829
 20
250.9150343834714
 30
0.0
 10
-1123.521374447519
 20
251.4348907436367
 30
0.0
 10
-1123.390285803961
 20
251.8034806273679
 30
0.0
 10
-1123.307316729863
 20
252.0609555283785
 30
0.0
 10
-1123.181615152421
 20
252.1509476856491
 30
0.0
 10
-1123.13447011081
 20
252.1846997203133
 30
0.0
 11
-1123.784218392065
 21
250.2726323663285
 31
0.0
 11
-1123.638167716159
 21
250.9497568665282
 31
0.0
 11
-1123.488560172187
 21
251.5160915909447
 31
0.0
 11
-1123.387056995505
 21
251.8178160013857
 31
0.0
 11
-1123.265090921222
 21
252.0747902658349
 31
0.0
 11
-1123.13447011081
 21
252.1846997203133
 31
0.0
  0
SPLINE
  5
19B
330
77
100
AcDbEntity
  8
0
  6
Continuous
 62
     3
100
AcDbSpline
210
0.0
220
0.0
230
1.0
 70
     8
 71
     3
 72
    18
 73
    14
 74
    12
 42
0.0000000001
 43
0.0000000001
 44
0.00000001
 40
0.0
 40
0.0
 40
0.0
 40
0.0
 40
0.2538330162725809
 40
0.4169833984150035
 40
0.5590780734268267
 40
0.8538141587094311
 40
1.387989699691843
 40
2.608750720119087
 40
4.28171470405658
 40
6.289152768870822
 40
8.522065325365983
 40
9.266553198877578
 40
10.01344266703787
 40
10.01344266703787
 40
10.01344266703787
 40
10.01344266703787
 10
-1107.940705150437
 20
252.5075143165308
 30
0.0
 10
-1107.906383652394
 20
252.5819263277595
 30
0.0
 10
-1107.850002118176
 20
252.7041664278879
 30
0.0
 10
-1107.756664814055
 20
252.8917143838133
 30
0.0
 10
-1107.511133857777
 20
252.8644485437443
 30
0.0
 10
-1107.464766637923
 20
252.4797710785127
 30
0.0
 10
-1107.334488879154
 20
251.8534948629181
 30
0.0
 10
-1107.309518049232
 20
250.6763313626157
 30
0.0
 10
-1107.308280619031
 20
249.0579626457979
 30
0.0
 10
-1107.390173923128
 20
247.0824684907454
 30
0.0
 10
-1107.496699329378
 20
245.4257228987464
 30
0.0
 10
-1107.594445106103
 20
244.1879962455881
 30
0.0
 10
-1107.637956206302
 20
243.6927871446886
 30
0.0
 10
-1107.659746789797
 20
243.4447838716978
 30
0.0
 11
-1107.940705150437
 21
252.5075143165308
 31
0.0
 11
-1107.832836936921
 21
252.7372873538152
 31
0.0
 11
-1107.73202201926
 21
252.8655620573625
 31
0.0
 11
-1107.590307530505
 21
252.8551745483345
 31
0.0
 11
-1107.474543557739
 21
252.5841246219796
 31
0.0
 11
-1107.387278574815
 21
252.0571252563831
 31
0.0
 11
-1107.316433668509
 21
250.8384216549094
 31
0.0
 11
-1107.31908868878
 21
249.1654597777527
 31
0.0
 11
-1107.394198816982
 21
247.1594273620858
 31
0.0
 11
-1107.536671373943
 21
244.9310647220591
 31
0.0
 11
-1107.59547085647
 21
244.1889024657698
 31
0.0
 11
-1107.659746789797
 21
243.4447838716978
 31
0.0
  0
SPLINE
  5
19C
330
77
100
AcDbEntity
  8
0
  6
Continuous
 62
     1
100
AcDbSpline
210
0.0
220
0.0
230
1.0
 70
     8
 71
     3
 72
    19
 73
    15
 74
    13
 42
0.0000000001
 43
0.0000000001
 44
0.00000001
 40
0.0
 40
0.0
 40
0.0
 40
0.0
 40
0.0729705643672788
 40
0.1364336564797695
 40
0.1886224230976709
 40
0.2307283521311664
 40
0.2497625324643711
 40
0.2596731501800341
 40
0.2636740166527867
 40
0.2650252510465597
 40
0.2679591394336884
 40
0.2709049788829192
 40
0.2729875601176851
 40
0.2732850717225999
 40
0.2732850717225999
 40
0.2732850717225999
 40
0.2732850717225999
 10
-1108.159256797398
 20
252.4445266501154
 30
0.0
 10
-1108.134904444094
 20
252.4457941590991
 30
0.0
 10
-1108.089372651459
 20
252.4481640309341
 30
0.0
 10
-1108.028228668985
 20
252.4643058539933
 30
0.0
 10
-1107.979392796562
 20
252.4842350613578
 30
0.0
 10
-1107.946788675661
 20
252.503423584595
 30
0.0
 10
-1107.926934014555
 20
252.51640938067
 30
0.0
 10
-1107.917947875916
 20
252.5226235744793
 30
0.0
 10
-1107.913527359123
 20
252.5252892996835
 30
0.0
 10
-1107.911755520097
 20
252.5274243374045
 30
0.0
 10
-1107.91078720747
 20
252.5297485251547
 30
0.0
 10
-1107.908310361654
 20
252.5309979337985
 30
0.0
 10
-1107.906814241655
 20
252.5319186589954
 30
0.0
 10
-1107.906130779733
 20
252.5323222531354
 30
0.0
 10
-1107.906045346993
 20
252.5323727024029
 30
0.0
 11
-1108.159256797398
 21
252.4445266501154
 31
0.0
 11
-1108.086573144351
 21
252.4509911565836
 31
0.0
 11
-1108.025082362293
 21
252.4666898120158
 31
0.0
 11
-1107.976903167745
 21
252.4867505341795
 31
0.0
 11
-1107.940390321195
 21
252.5077200667594
 31
0.0
 11
-1107.924468196959
 21
252.5181501185691
 31
0.0
 11
-1107.916216830645
 21
252.5236396811628
 31
0.0
 11
-1107.912986629844
 21
252.5260003453319
 31
0.0
 11
-1107.912128002145
 21
252.527043701868
 31
0.0
 11
-1107.910529453295
 21
252.5295038528064
 31
0.0
 11
-1107.908093874694
 21
252.5311609366723
 31
0.0
 11
-1107.906301412956
 21
252.5322212316866
 31
0.0
 11
-1107.906045346993
 21
252.5323727024029
 31
0.0
  0
SPLINE
  5
19D
330
77
100
AcDbEntity
  8
0
  6
Continuous
 62
     1
100
AcDbSpline
210
0.0
220
0.0
230
1.0
 70
     8
 71
     3
 72
    11
 73
     7
 74
     5
 42
0.0000000001
 43
0.0000000001
 44
0.00000001
 40
0.0
 40
0.0
 40
0.0
 40
0.0
 40
0.0002231022703949
 40
0.0017848181635591
 40
0.0069587986656261
 40
0.0138435881254326
 40
0.0138435881254326
 40
0.0138435881254326
 40
0.0138435881254326
 10
-1107.906045346993
 20
252.5323727024029
 30
0.0
 10
-1107.906075709867
 20
252.5323048158907
 30
0.0
 10
-1107.906318612859
 20
252.5317617237932
 30
0.0
 10
-1107.907253014817
 20
252.5296384444659
 30
0.0
 10
-1107.909295479192
 20
252.5255809112515
 30
0.0
 10
-1107.911186252636
 20
252.5220341260633
 30
0.0
 10
-1107.912265763823
 20
252.5200091376642
 30
0.0
 11
-1107.906045346993
 21
252.5323727024029
 31
0.0
 11
-1107.906136384925
 21
252.532169019517
 31
0.0
 11
-1107.906773650448
 21
252.5307432393153
 31
0.0
 11
-1107.909054121561
 21
252.5260989389653
 31
0.0
 11
-1107.912265763823
 21
252.5200091376642
 31
0.0
  0
SPLINE
  5
19E
330
77
100
AcDbEntity
  8
0
  6
Continuous
 62
     3
100
AcDbSpline
210
0.0
220
0.0
230
1.0
 70
     8
 71
     3
 72
    22
 73
    18
 74
    16
 42
0.0000000001
 43
0.0000000001
 44
0.00000001
 40
0.0
 40
0.0
 40
0.0
 40
0.0
 40
1.579038238869679
 40
3.121210076033692
 40
4.566972088413449
 40
5.888207678260816
 40
7.059211990138098
 40
7.82469601092884
 40
8.470334678493177
 40
8.99015115738551
 40
9.379098084133272
 40
9.63347130976132
 40
9.768825492898234
 40
9.89285103951445
 40
10.13032163984565
 40
10.19602289060296
 40
10.26743510338789
 40
10.26743510338789
 40
10.26743510338789
 40
10.26743510338789
 10
-1107.659746789797
 20
243.4447838716978
 30
0.0
 10
-1107.70911278429
 20
242.9207478590341
 30
0.0
 10
-1107.806692206772
 20
241.8849107002699
 30
0.0
 10
-1107.978256493217
 20
240.3721988479047
 30
0.0
 10
-1108.161734075247
 20
238.9475009175363
 30
0.0
 10
-1108.353612232195
 20
237.6488946302214
 30
0.0
 10
-1108.536478530575
 20
236.5782191035258
 30
0.0
 10
-1108.703434934477
 20
235.7341123567386
 30
0.0
 10
-1108.849004403537
 20
235.1060334932333
 30
0.0
 10
-1108.983340211425
 20
234.6081516488761
 30
0.0
 10
-1109.12044749197
 20
234.2374789883185
 30
0.0
 10
-1109.220047475777
 20
234.0132796083102
 30
0.0
 10
-1109.373947049614
 20
233.8694710489769
 30
0.0
 10
-1109.519963742298
 20
234.0102783327228
 30
0.0
 10
-1109.547783804436
 20
234.145334659236
 30
0.0
 10
-1109.578943477032
 20
234.2666787266606
 30
0.0
 10
-1109.588080746364
 20
234.311437749034
 30
0.0
 10
-1109.59283967087
 20
234.3347493972645
 30
0.0
 11
-1107.659746789797
 21
243.4447838716978
 31
0.0
 11
-1107.812879873735
 21
241.8731884980675
 31
0.0
 11
-1107.985867716362
 21
240.3407495330039
 31
0.0
 11
-1108.171679241355
 21
238.906977628683
 31
0.0
 11
-1108.366121348983
 21
237.6001280770281
 31
0.0
 11
-1108.565278552279
 21
236.4461837513302
 31
0.0
 11
-1108.71563932708
 21
235.6956123533358
 31
0.0
 11
-1108.862436739869
 21
235.0668836291211
 31
0.0
 11
-1109.004002882679
 21
234.5667154584644
 31
0.0
 11
-1109.138669847539
 21
234.2018257211438
 31
0.0
 11
-1109.26376987166
 21
233.9803404577935
 31
0.0
 11
-1109.376939820495
 21
233.9060887401479
 31
0.0
 11
-1109.476889713355
 21
233.9795213972612
 31
0.0
 11
-1109.562329569548
 21
234.2010892581875
 31
0.0
 11
-1109.577947551798
 21
234.2649072257319
 31
0.0
 11
-1109.59283967087
 21
234.3347493972645
 31
0.0
  0
SPLINE
  5
19F
330
77
100
AcDbEntity
  8
0
  6
Continuous
 62
     3
100
AcDbSpline
210
0.0
220
0.0
230
1.0
 70
     8
 71
     3
 72
    15
 73
    11
 74
     9
 42
0.0000000001
 43
0.0000000001
 44
0.00000001
 40
0.0
 40
0.0
 40
0.0
 40
0.0
 40
0.0560219819616959
 40
0.1558196223728154
 40
0.2999511078528727
 40
0.4845095165765076
 40
0.7015647741706259
 40
0.9399736763561833
 40
1.187368853645506
 40
1.432056229714461
 40
1.432056229714461
 40
1.432056229714461
 40
1.432056229714461
 10
-1098.745439713178
 20
283.2946126152447
 30
0.0
 10
-1098.727015664474
 20
283.2915670593351
 30
0.0
 10
-1098.675770988525
 20
283.283096145684
 30
0.0
 10
-1098.576967375466
 20
283.267771636745
 30
0.0
 10
-1098.435803683871
 20
283.2460266734249
 30
0.0
 10
-1098.255946037628
 20
283.2187422521737
 30
0.0
 10
-1098.044979650894
 20
283.1870013721434
 30
0.0
 10
-1097.81326048618
 20
283.1524123575054
 30
0.0
 10
-1097.572397717178
 20
283.1166910313657
 30
0.0
 10
-1097.410115993385
 20
283.0928232071434
 30
0.0
 10
-1097.329421628368
 20
283.0809549642204
 30
0.0
 11
-1098.745439713178
 21
283.2946126152447
 31
0.0
 11
-1098.690156946697
 21
283.2855418824685
 31
0.0
 11
-1098.591568967989
 21
283.2700506111869
 31
0.0
 11
-1098.449114795251
 21
283.2481258813979
 31
0.0
 11
-1098.266650728622
 21
283.2204009716652
 31
0.0
 11
-1098.052012378259
 21
283.1880998354173
 31
0.0
 11
-1097.816217669675
 21
283.152891029062
 31
0.0
 11
-1097.571497599701
 21
283.1166079600357
 31
0.0
 11
-1097.329421628368
 21
283.0809549642204
 31
0.0
  0
SPLINE
  5
1A0
330
77
100
AcDbEntity
  8
0
  6
Continuous
 62
     3
100
AcDbSpline
210
0.0
220
0.0
230
1.0
 70
     8
 71
     3
 72
    12
 73
     8
 74
     6
 42
0.0000000001
 43
0.0000000001
 44
0.00000001
 40
0.0
 40
0.0
 40
0.0
 40
0.0
 40
0.9799786329685978
 40
1.959957265936938
 40
4.369584175104547
 40
6.55609258866494
 40
7.813283270203467
 40
7.813283270203467
 40
7.813283270203467
 40
7.813283270203467
 10
-1106.553947185756
 20
286.0262476198268
 30
0.0
 10
-1106.227486704241
 20
286.0376498961803
 30
0.0
 10
-1105.57456574121
 20
286.0604544488873
 30
0.0
 10
-1104.118925227815
 20
286.1112942027818
 30
0.0
 10
-1102.261353083274
 20
286.1761687804001
 30
0.0
 10
-1100.31143312517
 20
286.2442657089763
 30
0.0
 10
-1099.16423284208
 20
286.2843310055271
 30
0.0
 10
-1098.745424616991
 20
286.2989576369738
 30
0.0
 11
-1106.553947185756
 21
286.0262476198268
 31
0.0
 11
-1105.57456573588
 21
286.060454296265
 31
0.0
 11
-1104.595184259266
 21
286.0946602071695
 31
0.0
 11
-1102.187025545334
 21
286.1787640114603
 31
0.0
 11
-1100.001849300139
 21
286.255077968297
 31
0.0
 11
-1098.745424616991
 21
286.2989576369738
 31
0.0
  0
SPLINE
  5
1A1
330
77
100
AcDbEntity
  8
0
  6
Continuous
 62
     3
100
AcDbSpline
210
0.0
220
0.0
230
1.0
 70
     8
 71
     3
 72
    15
 73
    11
 74
     9
 42
0.0000000001
 43
0.0000000001
 44
0.00000001
 40
0.0
 40
0.0
 40
0.0
 40
0.0
 40
0.2437846792267278
 40
0.4989907346525164
 40
0.7626680008870474
 40
1.031054725872155
 40
1.299963118588821
 40
1.56509897240085
 40
1.822427240052754
 40
2.068637372192269
 40
2.068637372192269
 40
2.068637372192269
 40
2.068637372192269
 10
-1097.329413760585
 20
287.5782139605554
 30
0.0
 10
-1097.410572523921
 20
287.5714108605677
 30
0.0
 10
-1097.576692359954
 20
287.5574859335726
 30
0.0
 10
-1097.821659395094
 20
287.4826656662565
 30
0.0
 10
-1098.057443055485
 20
287.3649290223601
 30
0.0
 10
-1098.272190286712
 20
287.2037026905422
 30
0.0
 10
-1098.454567332025
 20
287.0059596759123
 30
0.0
 10
-1098.5965461285
 20
286.782325740286
 30
0.0
 10
-1098.697385783325
 20
286.544759120867
 30
0.0
 10
-1098.729649130837
 20
286.379676455687
 30
0.0
 10
-1098.745424616991
 20
286.2989576369738
 30
0.0
 11
-1097.329413760585
 21
287.5782139605554
 31
0.0
 11
-1097.571494862924
 21
287.5494440158882
 31
0.0
 11
-1097.81621440815
 21
287.4770390788309
 31
0.0
 11
-1098.051931187136
 21
287.3588726672183
 31
0.0
 11
-1098.26657696415
 21
287.1977558631343
 31
0.0
 11
-1098.448942647533
 21
287.0001337965583
 31
0.0
 11
-1098.591458674548
 21
286.776557851921
 31
0.0
 11
-1098.690018608213
 21
286.538852620997
 31
0.0
 11
-1098.745424616991
 21
286.2989576369738
 31
0.0
  0
SPLINE
  5
1A2
330
77
100
AcDbEntity
  8
0
  6
Continuous
 62
     3
100
AcDbSpline
210
0.0
220
0.0
230
1.0
 70
     8
 71
     3
 72
    17
 73
    13
 74
    11
 42
0.0000000001
 43
0.0000000001
 44
0.00000001
 40
0.0
 40
0.0
 40
0.0
 40
0.0
 40
0.0425230802268616
 40
0.1214807907685758
 40
0.2750454256415106
 40
0.402136701516376
 40
0.61368936305179
 40
0.929807259158538
 40
1.3878855704066
 40
1.910275373613856
 40
2.476191248545351
 40
3.069982404803093
 40
3.069982404803093
 40
3.069982404803093
 40
3.069982404803093
 10
-1098.745424616991
 20
286.2989576369738
 30
0.0
 10
-1098.731104150742
 20
286.2960117483195
 30
0.0
 10
-1098.690193154765
 20
286.2875958743674
 30
0.0
 10
-1098.640682327492
 20
286.1998923282347
 30
0.0
 10
-1098.60983477463
 20
286.0872549897849
 30
0.0
 10
-1098.58369344169
 20
285.9240740925617
 30
0.0
 10
-1098.565905568115
 20
285.7068218063632
 30
0.0
 10
-1098.5589859037
 20
285.3779355750082
 30
0.0
 10
-1098.572125785739
 20
284.9458604986267
 30
0.0
 10
-1098.608565000134
 20
284.431570568465
 30
0.0
 10
-1098.665323418606
 20
283.8736359973398
 30
0.0
 10
-1098.718309746618
 20
283.490688645443
 30
0.0
 10
-1098.745439713178
 20
283.2946126152447
 30
0.0
 11
-1098.745424616991
 21
286.2989576369738
 31
0.0
 11
-1098.704796547522
 21
286.2864048554819
 31
0.0
 11
-1098.656638757633
 21
286.223833717351
 31
0.0
 11
-1098.610308945069
 21
286.0774245456729
 31
0.0
 11
-1098.589416620344
 21
285.952062257998
 31
0.0
 11
-1098.57045507866
 21
285.7413610749455
 31
0.0
 11
-1098.562196591169
 21
285.4253510725353
 31
0.0
 11
-1098.574348257007
 21
284.9674339662232
 31
0.0
 11
-1098.610091593629
 21
284.4462684259368
 31
0.0
 11
-1098.667682006682
 21
283.8832905206654
 31
0.0
 11
-1098.745439713178
 21
283.2946126152447
 31
0.0
  0
SPLINE
  5
1A3
330
77
100
AcDbEntity
  8
0
  6
Continuous
 62
     3
100
AcDbSpline
210
0.0
220
0.0
230
1.0
 70
     8
 71
     3
 72
    18
 73
    14
 74
    12
 42
0.0000000001
 43
0.0000000001
 44
0.00000001
 40
0.0
 40
0.0
 40
0.0
 40
0.0
 40
0.0791566845694122
 40
0.2157323625125029
 40
0.3660949940874855
 40
0.8706404491246396
 40
1.344467574637332
 40
1.666563993995053
 40
2.153822706993615
 40
2.810019824811104
 40
3.177239278473618
 40
3.76459149096956
 40
4.534905155217285
 40
4.534905155217285
 40
4.534905155217285
 40
4.534905155217285
 10
-1097.329413760585
 20
287.5782139605554
 30
0.0
 10
-1097.308333107899
 20
287.5611931162655
 30
0.0
 10
-1097.25088023412
 20
287.514804779379
 30
0.0
 10
-1097.234239615401
 20
287.3851430327
 30
0.0
 10
-1097.188580736653
 20
287.1297985218243
 30
0.0
 10
-1097.174088758638
 20
286.7493414380531
 30
0.0
 10
-1097.166582175734
 20
286.3172410354475
 30
0.0
 10
-1097.170683967407
 20
285.8892426988212
 30
0.0
 10
-1097.182945924593
 20
285.4009600625741
 30
0.0
 10
-1097.204551197101
 20
284.8977979809541
 30
0.0
 10
-1097.234124328787
 20
284.3616950489949
 30
0.0
 10
-1097.271397332257
 20
283.7879160797039
 30
0.0
 10
-1097.308417240266
 20
283.3368699280903
 30
0.0
 10
-1097.329421628368
 20
283.0809549642204
 30
0.0
 11
-1097.329413760585
 21
287.5782139605554
 31
0.0
 11
-1097.272586544479
 21
287.5231099840956
 31
0.0
 11
-1097.234071044381
 21
287.3920776519872
 31
0.0
 11
-1097.210561004441
 21
287.2435643562989
 31
0.0
 11
-1097.175533127587
 21
286.7402362684261
 31
0.0
 11
-1097.168236247934
 21
286.2664653317711
 31
0.0
 11
-1097.170818749128
 21
285.9443792655549
 31
0.0
 11
-1097.182764754733
 21
285.4572670132525
 31
0.0
 11
-1097.210391410997
 21
284.8016517104295
 31
0.0
 11
-1097.230541797309
 21
284.4349855283515
 31
0.0
 11
-1097.268881506901
 21
283.8488859735041
 31
0.0
 11
-1097.329421628368
 21
283.0809549642204
 31
0.0
  0
ENDBLK
  5
79
330
77
100
AcDbEntity
  8
0
100
AcDbBlockEnd
  0
BLOCK
  5
7B
330
7A
100
AcDbEntity
  8
0
100
AcDbBlockBegin
  2
0059_1502_0000__1
 70
     0
 10
-1141.355537633784
 20
290.0515588906028
 30
0.0
  3
0059_1502_0000__1
  1

  0
LINE
  5
1A4
330
7A
100
AcDbEntity
  8
0
  6
Continuous
 62
     3
100
AcDbLine
 10
-1120.336735663273
 20
66.03100640238605
 30
0.0
 11
-1124.139197672626
 21
66.16314260062174
 31
0.0
  0
LINE
  5
1A5
330
7A
100
AcDbEntity
  8
0
  6
Continuous
 62
     1
100
AcDbLine
 10
-1124.36426491155
 20
111.9121870665807
 30
0.0
 11
-1123.537784325562
 21
111.9194000734469
 31
0.0
  0
LINE
  5
1A6
330
7A
100
AcDbEntity
  8
0
  6
Continuous
 62
     1
100
AcDbLine
 10
-1124.360773833853
 20
109.9070693072417
 30
0.0
 11
-1123.309712172508
 21
109.9025310422613
 31
0.0
  0
LINE
  5
1A7
330
7A
100
AcDbEntity
  8
0
  6
Continuous
 62
     3
100
AcDbLine
 10
-1120.337269482878
 20
62.05388439250348
 30
0.0
 11
-1124.139222747686
 21
62.18599540196712
 31
0.0
  0
LINE
  5
1A8
330
7A
100
AcDbEntity
  8
0
  6
Continuous
 62
     1
100
AcDbLine
 10
-1124.364264911686
 20
240.1761914089938
 30
0.0
 11
-1123.539009872963
 21
240.168989097819
 31
0.0
  0
LINE
  5
1A9
330
7A
100
AcDbEntity
  8
0
  6
Continuous
 62
     1
100
AcDbLine
 10
-1125.355230303353
 20
241.1813058417061
 30
0.0
 11
-1125.355537867857
 21
241.1761533276217
 31
0.0
  0
LINE
  5
1AA
330
7A
100
AcDbEntity
  8
0
  6
Continuous
 62
     1
100
AcDbLine
 10
-1125.355230303353
 20
241.1813058417061
 30
0.0
 11
-1125.355537867857
 21
241.1900806976468
 31
0.0
  0
LINE
  5
1AB
330
7A
100
AcDbEntity
  8
0
  6
Continuous
 62
     1
100
AcDbLine
 10
-1123.309770432692
 20
242.1949828958175
 30
0.0
 11
-1124.360773831754
 21
242.1900669898384
 31
0.0
  0
LINE
  5
1AC
330
7A
100
AcDbEntity
  8
0
  6
Continuous
 62
     1
100
AcDbLine
 10
-1128.348048530992
 20
62.05316207784105
 30
0.0
 11
-1132.089947265702
 21
62.18383205979782
 31
0.0
  0
LINE
  5
1AD
330
7A
100
AcDbEntity
  8
0
  6
Continuous
 62
     1
100
AcDbLine
 10
-1125.355537867857
 20
110.9122251479516
 30
0.0
 11
-1125.355537867215
 21
110.9070914191824
 31
0.0
  0
LINE
  5
1AE
330
7A
100
AcDbEntity
  8
0
  6
Continuous
 62
     1
100
AcDbLine
 10
-1128.347138244394
 20
290.0515588906028
 30
0.0
 11
-1132.089050449746
 21
289.9208884381078
 31
0.0
  0
LINE
  5
1AF
330
7A
100
AcDbEntity
  8
0
  6
Continuous
 62
     3
100
AcDbLine
 10
-1120.335847665246
 20
286.0737145188715
 30
0.0
 11
-1124.13832191036
 21
285.9415778955727
 31
0.0
  0
LINE
  5
1B0
330
7A
100
AcDbEntity
  8
0
  6
Continuous
 62
     3
100
AcDbLine
 10
-1120.336349161348
 20
290.0508374395236
 30
0.0
 11
-1124.138309702317
 21
289.9187252906695
 31
0.0
  0
ARC
  5
1B1
330
7A
100
AcDbEntity
  8
0
  6
Continuous
 62
     1
100
AcDbCircle
 10
-368.8651770386646
 20
176.0493278454037
 30
0.0
 40
759.4824122221903
100
AcDbArc
 50
171.6703883060783
 51
188.3291492515206
  0
ARC
  5
1B2
330
7A
100
AcDbEntity
  8
0
  6
Continuous
 62
     1
100
AcDbCircle
 10
-368.855536610203
 20
176.049328277423
 30
0.0
 40
772.5000010235811
100
AcDbArc
 50
179.9999989676997
 51
188.4122403840577
  0
ARC
  5
1B3
330
7A
100
AcDbEntity
  8
0
  6
Continuous
 62
     1
100
AcDbCircle
 10
-1132.055047704738
 20
63.18322295894538
 30
0.0
 40
1.000000074327612
100
AcDbArc
 50
188.4122438989645
 51
267.9999964645553
  0
ARC
  5
1B4
330
7A
100
AcDbEntity
  8
0
  6
Continuous
 62
     3
100
AcDbCircle
 10
-368.8479371694284
 20
176.0493243498563
 30
0.0
 40
764.1959407152873
100
AcDbArc
 50
171.7230610130596
 51
188.2764797676355
  0
ARC
  5
1B5
330
7A
100
AcDbEntity
  8
0
  6
Continuous
 62
     3
100
AcDbCircle
 10
-368.8116413144005
 20
176.0493504578589
 30
0.0
 40
763.2789110615678
100
AcDbArc
 50
171.722136544021
 51
188.2774068371879
  0
ARC
  5
1B6
330
7A
100
AcDbEntity
  8
0
  6
Continuous
 62
     1
100
AcDbCircle
 10
-1124.355537867857
 20
241.1900806975914
 30
0.0
 40
0.9999999999999175
100
AcDbArc
 50
90.30000000375146
 51
179.9999999968261
  0
ARC
  5
1B7
330
7A
100
AcDbEntity
  8
0
  6
Continuous
 62
     1
100
AcDbCircle
 10
-1124.355537867857
 20
241.1761533276217
 30
0.0
 40
1.0
100
AcDbArc
 50
180.0
 51
269.4999708736964
  0
ARC
  5
1B8
330
7A
100
AcDbEntity
  8
0
  6
Continuous
 62
     1
100
AcDbCircle
 10
-1126.391450423425
 20
144.5363912180066
 30
0.0
 40
30.86899848293945
100
AcDbArc
 50
91.41065212590506
 51
93.63260277808756
  0
ARC
  5
1B9
330
7A
100
AcDbEntity
  8
0
  6
Continuous
 62
     1
100
AcDbCircle
 10
-1126.376225197822
 20
144.2070404486072
 30
0.0
 40
31.19263182238268
100
AcDbArc
 50
91.42370735779761
 51
93.62287505066372
  0
ARC
  5
1BA
330
7A
100
AcDbEntity
  8
0
  6
Continuous
 62
     1
100
AcDbCircle
 10
-1126.376225232926
 20
207.8916116290982
 30
0.0
 40
31.19262749665063
100
AcDbArc
 50
266.3771245121023
 51
268.5762925092251
  0
ARC
  5
1BB
330
7A
100
AcDbEntity
  8
0
  6
Continuous
 62
     1
100
AcDbCircle
 10
-368.8555386574149
 20
176.0493282774944
 30
0.0
 40
772.499998976369
100
AcDbArc
 50
171.5873043539478
 51
179.999998967705
  0
ARC
  5
1BC
330
7A
100
AcDbEntity
  8
0
  6
Continuous
 62
     1
100
AcDbCircle
 10
-1124.355537867857
 20
110.9070555994778
 30
0.0
 40
0.9999999999994224
100
AcDbArc
 50
179.997947682103
 51
269.6999998759766
  0
ARC
  5
1BD
330
7A
100
AcDbEntity
  8
0
  6
Continuous
 62
     1
100
AcDbCircle
 10
-1124.355537867857
 20
110.9122251479509
 30
0.0
 40
1.000000000000698
100
AcDbArc
 50
90.50002911851244
 51
179.9999999999601
  0
ARC
  5
1BE
330
7A
100
AcDbEntity
  8
0
  6
Continuous
 62
     1
100
AcDbCircle
 10
-1132.054150889123
 20
288.9214975392076
 30
0.0
 40
1.000000074068085
100
AcDbArc
 50
92.00000351640996
 51
171.5873008245761
  0
SPLINE
  5
1BF
330
7A
100
AcDbEntity
  8
0
  6
Continuous
 62
     3
100
AcDbSpline
210
0.0
220
0.0
230
1.0
 70
     8
 71
     3
 72
    21
 73
    17
 74
    15
 42
0.0000000001
 43
0.0000000001
 44
0.00000001
 40
0.0
 40
0.0
 40
0.0
 40
0.0
 40
0.0853623620489289
 40
0.2158811461574389
 40
0.3363776895748161
 40
0.5015203635506078
 40
0.7812141400529496
 40
1.20177137213456
 40
1.488102356822683
 40
1.919147756002869
 40
2.498541828071998
 40
2.957920102450807
 40
3.364786477188841
 40
3.694174041601388
 40
3.921071300369534
 40
4.020437365585061
 40
4.020437365585061
 40
4.020437365585061
 40
4.020437365585061
 10
-1124.139222747686
 20
62.18599540196712
 30
0.0
 10
-1124.115858179947
 20
62.20364639940104
 30
0.0
 10
-1124.056769261341
 20
62.24828571660585
 30
0.0
 10
-1124.03772789869
 20
62.36669276035187
 30
0.0
 10
-1124.011180444261
 20
62.5005343939654
 30
0.0
 10
-1123.992178894227
 20
62.68919539285194
 30
0.0
 10
-1123.975091758994
 20
62.9766578758516
 30
0.0
 10
-1123.970590510566
 20
63.30582807805403
 30
0.0
 10
-1123.974347644373
 20
63.68507230425982
 30
0.0
 10
-1123.987232274332
 20
64.11719358427179
 30
0.0
 10
-1124.011735896609
 20
64.60654626698977
 30
0.0
 10
-1124.043828474419
 20
65.08737083357808
 30
0.0
 10
-1124.07506988311
 20
65.48469729573343
 30
0.0
 10
-1124.103470113785
 20
65.8044909737711
 30
0.0
 10
-1124.124174167601
 20
66.02206325776918
 30
0.0
 10
-1124.13569033357
 20
66.1302066719989
 30
0.0
 10
-1124.139197672626
 20
66.16314260062174
 30
0.0
 11
-1124.139222747686
 21
62.18599540196712
 31
0.0
 11
-1124.076457030099
 21
62.24385037193787
 31
0.0
 11
-1124.036672980827
 21
62.36815798404891
 31
0.0
 11
-1124.015562615086
 21
62.4867909028944
 31
0.0
 11
-1123.996879219112
 21
62.65087330134945
 31
0.0
 11
-1123.979569207587
 21
62.93003091295108
 31
0.0
 11
-1123.971945781553
 21
63.35051904456915
 31
0.0
 11
-1123.97462803109
 21
63.63683746578911
 31
0.0
 11
-1123.986996774413
 21
64.06770536937793
 31
0.0
 11
-1124.01552329853
 21
64.64639676223825
 31
0.0
 11
-1124.045951623028
 21
65.10476617225547
 31
0.0
 11
-1124.077849204564
 21
65.51038026370769
 31
0.0
 11
-1124.106900061261
 21
65.83848423398965
 31
0.0
 11
-1124.128788211241
 21
66.0643232804961
 31
0.0
 11
-1124.139197672626
 21
66.16314260062174
 31
0.0
  0
SPLINE
  5
1C0
330
7A
100
AcDbEntity
  8
0
  6
Continuous
 62
     3
100
AcDbSpline
210
0.0
220
0.0
230
1.0
 70
     8
 71
     3
 72
    15
 73
    11
 74
     9
 42
0.0000000001
 43
0.0000000001
 44
0.00000001
 40
0.0
 40
0.0
 40
0.0
 40
0.0
 40
0.162963526445469
 40
0.3276728490110693
 40
0.4863551812186183
 40
0.6307944789336951
 40
0.7535914760031089
 40
0.8494843566276292
 40
0.9158852845183594
 40
0.9531733551815516
 40
0.9531733551815516
 40
0.9531733551815516
 40
0.9531733551815516
 10
-1124.139197672626
 20
66.16314260062174
 30
0.0
 10
-1124.192978888181
 20
66.15550161286187
 30
0.0
 10
-1124.301117466845
 20
66.14013778094717
 30
0.0
 10
-1124.461773160245
 20
66.11840128112635
 30
0.0
 10
-1124.616402848261
 20
66.09819630927439
 30
0.0
 10
-1124.757265940019
 20
66.0804766544889
 30
0.0
 10
-1124.877432817779
 20
66.06592984722165
 30
0.0
 10
-1124.971840530292
 20
66.05507627808925
 30
0.0
 10
-1125.037963494646
 20
66.04772925030494
 30
0.0
 10
-1125.072375230558
 20
66.04449478039564
 30
0.0
 10
-1125.084750190855
 20
66.04333161801375
 30
0.0
 11
-1124.139197672626
 21
66.16314260062174
 31
0.0
 11
-1124.300566112205
 21
66.14039754271104
 31
0.0
 11
-1124.463780712122
 21
66.11825809118122
 31
0.0
 11
-1124.621127386362
 21
66.09771285668653
 31
0.0
 11
-1124.764438697146
 21
66.07969678259278
 31
0.0
 11
-1124.886351741085
 21
66.06498922647873
 31
0.0
 11
-1124.981615721961
 21
66.05402480665336
 31
0.0
 11
-1125.047632913842
 21
66.04689644071644
 31
0.0
 11
-1125.084750190855
 21
66.04333161801375
 31
0.0
  0
SPLINE
  5
1C1
330
7A
100
AcDbEntity
  8
0
  6
Continuous
 62
     3
100
AcDbSpline
210
0.0
220
0.0
230
1.0
 70
     8
 71
     3
 72
    27
 73
    23
 74
    21
 42
0.0000000001
 43
0.0000000001
 44
0.00000001
 40
0.0
 40
0.0
 40
0.0
 40
0.0
 40
0.0180103377649889
 40
0.0491459616048154
 40
0.1006425409859105
 40
0.1683456973831788
 40
0.2337011591624106
 40
0.2793842653106654
 40
0.4419375244842001
 40
0.6158026825480972
 40
0.7842892836746075
 40
0.9301969703011694
 40
1.226231411178846
 40
1.552715095710159
 40
1.905341743272368
 40
2.133030095174464
 40
2.346191658340198
 40
2.54133422677904
 40
2.714949684891384
 40
2.863517302922008
 40
2.983506295688812
 40
3.071377994976702
 40
3.071377994976702
 40
3.071377994976702
 40
3.071377994976702
 10
-1125.084770478885
 20
63.03914599235301
 30
0.0
 10
-1125.078733122366
 20
63.03947271032017
 30
0.0
 10
-1125.062258601147
 20
63.04036424655224
 30
0.0
 10
-1125.031738189788
 20
63.05744235437025
 30
0.0
 10
-1125.00126476607
 20
63.09840340050087
 30
0.0
 10
-1124.977207058082
 20
63.15528040906538
 30
0.0
 10
-1124.960292994026
 20
63.21248116002559
 30
0.0
 10
-1124.940062648419
 20
63.30143342244007
 30
0.0
 10
-1124.921898500343
 20
63.42772384109187
 30
0.0
 10
-1124.908688728017
 20
63.59554497611093
 30
0.0
 10
-1124.902619383934
 20
63.75822347899527
 30
0.0
 10
-1124.900583168659
 20
63.96170222015607
 30
0.0
 10
-1124.905735487243
 20
64.21784968445505
 30
0.0
 10
-1124.921943459138
 20
64.54252886312764
 30
0.0
 10
-1124.944567244371
 20
64.84397707358173
 30
0.0
 10
-1124.968966179142
 20
65.10734751292024
 30
0.0
 10
-1124.991089320479
 20
65.31819241994282
 30
0.0
 10
-1125.013381739311
 20
65.51088350427165
 30
0.0
 10
-1125.034779167999
 20
65.68199486190703
 30
0.0
 10
-1125.054226742766
 20
65.82809815385906
 30
0.0
 10
-1125.070652170548
 20
65.94576740733632
 30
0.0
 10
-1125.080561211097
 20
66.01434212199341
 30
0.0
 10
-1125.084750190855
 20
66.04333161801375
 30
0.0
 11
-1125.084770478885
 21
63.03914599235301
 31
0.0
 11
-1125.066869355101
 21
63.04112640485535
 31
0.0
 11
-1125.039092429197
 21
63.05519301280502
 31
0.0
 11
-1125.0061594479
 21
63.09478236024663
 31
0.0
 11
-1124.978131763567
 21
63.15641162518674
 31
0.0
 11
-1124.959227120479
 21
63.21897320168628
 31
0.0
 11
-1124.948969081629
 21
63.26348970229341
 31
0.0
 11
-1124.924115081238
 21
63.4241316667128
 31
0.0
 11
-1124.909760550024
 21
63.597403247251
 31
0.0
 11
-1124.903159920965
 21
63.7657605056487
 31
0.0
 11
-1124.901567627039
 21
63.91165950364652
 31
0.0
 11
-1124.906927280125
 21
64.20764542274497
 31
0.0
 11
-1124.922816074893
 21
64.53374225263752
 31
0.0
 11
-1124.948927191567
 21
64.88540084012968
 31
0.0
 11
-1124.969887463309
 21
65.11212237108867
 31
0.0
 11
-1124.992108191473
 21
65.32412258630345
 31
0.0
 11
-1125.014521704981
 21
65.5179737055397
 31
0.0
 11
-1125.036060332752
 21
65.69024794856315
 31
0.0
 11
-1125.055656403708
 21
65.83751753513953
 31
0.0
 11
-1125.072242246769
 21
65.95635468503448
 31
0.0
 11
-1125.084750190855
 21
66.04333161801375
 31
0.0
  0
SPLINE
  5
1C2
330
7A
100
AcDbEntity
  8
0
  6
Continuous
 62
     3
100
AcDbSpline
210
0.0
220
0.0
230
1.0
 70
     8
 71
     3
 72
    15
 73
    11
 74
     9
 42
0.0000000001
 43
0.0000000001
 44
0.00000001
 40
0.0
 40
0.0
 40
0.0
 40
0.0
 40
0.1640908790173342
 40
0.3356967406645868
 40
0.5126090128132804
 40
0.6921073644339338
 40
0.8712763368665936
 40
1.047263169426289
 40
1.217508651816477
 40
1.380018030776006
 40
1.380018030776006
 40
1.380018030776006
 40
1.380018030776006
 10
-1125.084770478885
 20
63.03914599235301
 30
0.0
 10
-1125.074182200242
 20
62.9853637430279
 30
0.0
 10
-1125.052520724292
 20
62.87533614178539
 30
0.0
 10
-1124.98500399288
 20
62.71702154370081
 30
0.0
 10
-1124.890052411908
 20
62.56795462857463
 30
0.0
 10
-1124.768188337216
 20
62.43610608673286
 30
0.0
 10
-1124.624799810405
 20
62.32855583751928
 30
0.0
 10
-1124.46746194644
 20
62.24996022658616
 30
0.0
 10
-1124.304090650392
 20
62.19994667873191
 30
0.0
 10
-1124.193320294608
 20
62.1905731871941
 30
0.0
 10
-1124.139222747686
 20
62.18599540196712
 30
0.0
 11
-1125.084770478885
 21
63.03914599235301
 31
0.0
 11
-1125.047616815567
 21
62.87931663998397
 31
0.0
 11
-1124.981637362063
 21
62.72090173075171
 31
0.0
 11
-1124.886327847827
 21
62.57185795016088
 31
0.0
 11
-1124.7644615131
 21
62.44006927578081
 31
0.0
 11
-1124.62111972009
 21
62.33257671297147
 31
0.0
 11
-1124.463804557646
 21
62.25368878677543
 31
0.0
 11
-1124.300582002304
 21
62.20529538121231
 31
0.0
 11
-1124.139222747686
 21
62.18599540196712
 31
0.0
  0
SPLINE
  5
1C3
330
7A
100
AcDbEntity
  8
0
  6
Continuous
 62
     1
100
AcDbSpline
210
0.0
220
0.0
230
1.0
 70
     8
 71
     3
 72
    18
 73
    14
 74
    12
 42
0.0000000001
 43
0.0000000001
 44
0.00000001
 40
0.0
 40
0.0
 40
0.0
 40
0.0
 40
0.1279821471517148
 40
0.3651911132170741
 40
0.5328799811881725
 40
0.8127117246687559
 40
1.230915344554611
 40
1.521274281823636
 40
1.951384207245431
 40
2.525940041540896
 40
3.135294508240268
 40
3.658479708023601
 40
4.057898385929589
 40
4.057898385929589
 40
4.057898385929589
 40
4.057898385929589
 10
-1120.337269482878
 20
62.05388439250348
 30
0.0
 10
-1120.299269822317
 20
62.07633112566729
 30
0.0
 10
-1120.190839555665
 20
62.14038183629074
 30
0.0
 10
-1120.162437742046
 20
62.33512636714089
 30
0.0
 10
-1120.121704744507
 20
62.55486996748532
 30
0.0
 10
-1120.100283655369
 20
62.84526728674825
 30
0.0
 10
-1120.092483184195
 20
63.1737953829906
 30
0.0
 10
-1120.098351885456
 20
63.55357413287879
 30
0.0
 10
-1120.117065664281
 20
63.98482248195029
 30
0.0
 10
-1120.156251165652
 20
64.52151616567107
 30
0.0
 10
-1120.213122537231
 20
65.08774220579141
 30
0.0
 10
-1120.2746971103
 20
65.59471424404549
 30
0.0
 10
-1120.317992142822
 20
65.89919077161063
 30
0.0
 10
-1120.336735663273
 20
66.03100640238605
 30
0.0
 11
-1120.337269482878
 21
62.05388439250348
 31
0.0
 11
-1120.234197042329
 21
62.12974941731008
 31
0.0
 11
-1120.157872332839
 21
62.35434379013142
 31
0.0
 11
-1120.1305589864
 21
62.51979329163483
 31
0.0
 11
-1120.105597870788
 21
62.79850954047367
 31
0.0
 11
-1120.09469437794
 21
63.21657099711533
 31
0.0
 11
-1120.098719478962
 21
63.50690203406067
 31
0.0
 11
-1120.116787969592
 21
63.93663227222493
 31
0.0
 11
-1120.157926001043
 21
64.50971347859215
 31
0.0
 11
-1120.218248472979
 21
65.11607481102195
 31
0.0
 11
-1120.281669470688
 21
65.63540180851183
 31
0.0
 11
-1120.336735663273
 21
66.03100640238605
 31
0.0
  0
SPLINE
  5
1C4
330
7A
100
AcDbEntity
  8
0
  6
Continuous
 62
     3
100
AcDbSpline
210
0.0
220
0.0
230
1.0
 70
     8
 71
     3
 72
    11
 73
     7
 74
     5
 42
0.0000000001
 43
0.0000000001
 44
0.00000001
 40
0.0
 40
0.0
 40
0.0
 40
0.0
 40
3.478718372990917
 40
5.966790296667883
 40
6.963154529461183
 40
7.959518762254564
 40
7.959518762254564
 40
7.959518762254564
 40
7.959518762254564
 10
-1125.084770478885
 20
63.03914599235301
 30
0.0
 10
-1126.244343266947
 20
63.03901758758374
 30
0.0
 10
-1128.233273360803
 20
63.03879734430758
 30
0.0
 10
-1130.554324754208
 20
63.038029152555
 30
0.0
 10
-1132.047924772311
 20
63.03744734156233
 30
0.0
 10
-1132.712167504924
 20
63.03710145982709
 30
0.0
 10
-1133.044288871231
 20
63.03692851895946
 30
0.0
 11
-1125.084770478885
 21
63.03914599235301
 31
0.0
 11
-1128.563488810875
 21
63.03861189059973
 31
0.0
 11
-1131.051560611663
 21
63.03782989904832
 31
0.0
 11
-1132.047924762412
 21
63.03742555774843
 31
0.0
 11
-1133.044288871231
 21
63.03692851895946
 31
0.0
  0
SPLINE
  5
1C5
330
7A
100
AcDbEntity
  8
0
  6
Continuous
 62
     3
100
AcDbSpline
210
0.0
220
0.0
230
1.0
 70
     8
 71
     3
 72
    11
 73
     7
 74
     5
 42
0.0000000001
 43
0.0000000001
 44
0.00000001
 40
0.0
 40
0.0
 40
0.0
 40
0.0
 40
3.475281951579017
 40
5.960573261764535
 40
6.955649067136608
 40
7.950724872525874
 40
7.950724872525874
 40
7.950724872525874
 40
7.950724872525874
 10
-1124.139222747686
 20
62.18599540196712
 30
0.0
 10
-1125.297650058685
 20
62.18585674022043
 30
0.0
 10
-1127.284507801983
 20
62.18561891678304
 30
0.0
 10
-1129.603057402547
 20
62.18494254002378
 30
0.0
 10
-1131.094871594532
 20
62.18435074339972
 30
0.0
 10
-1131.75825537531
 20
62.18400495433178
 30
0.0
 10
-1132.089947265702
 20
62.18383205979782
 30
0.0
 11
-1124.139222747686
 21
62.18599540196712
 31
0.0
 11
-1127.614504658519
 21
62.18546322789207
 31
0.0
 11
-1130.099795862169
 21
62.18473553095188
 31
0.0
 11
-1131.094871584942
 21
62.18433008654866
 31
0.0
 11
-1132.089947265702
 21
62.18383205979782
 31
0.0
  0
SPLINE
  5
1C6
330
7A
100
AcDbEntity
  8
0
  6
Continuous
 62
     1
100
AcDbSpline
210
0.0
220
0.0
230
1.0
 70
     8
 71
     3
 72
     9
 73
     5
 74
     3
 42
0.0000000001
 43
0.0000000001
 44
0.00000001
 40
0.0
 40
0.0
 40
0.0
 40
0.0
 40
20.20716475197861
 40
40.40775046005255
 40
40.40775046005255
 40
40.40775046005255
 40
40.40775046005255
 10
-1127.181707683892
 20
194.3754139568952
 30
0.0
 10
-1126.748363582425
 20
201.0971814441738
 30
0.0
 10
-1125.881816467561
 20
214.5385279472677
 30
0.0
 10
-1125.014846252392
 20
227.979847166917
 30
0.0
 10
-1124.581431723286
 20
234.699412543231
 30
0.0
 11
-1127.181707683892
 21
194.3754139568952
 31
0.0
 11
-1125.881569569968
 21
214.5407095956487
 31
0.0
 11
-1124.581431723286
 21
234.699412543231
 31
0.0
  0
SPLINE
  5
1C7
330
7A
100
AcDbEntity
  8
0
  6
Continuous
 62
     1
100
AcDbSpline
210
0.0
220
0.0
230
1.0
 70
     8
 71
     3
 72
    11
 73
     7
 74
     5
 42
0.0000000001
 43
0.0000000001
 44
0.00000001
 40
0.0
 40
0.0
 40
0.0
 40
0.0
 40
0.6017586177108104
 40
1.203517235421835
 40
1.495622813612262
 40
1.787728391802962
 40
1.787728391802962
 40
1.787728391802962
 40
1.787728391802962
 10
-1124.711221434686
 20
250.2806665489765
 30
0.0
 10
-1124.510642761778
 20
250.2789281665954
 30
0.0
 10
-1124.109485415962
 20
250.2754514018332
 30
0.0
 10
-1123.610963200744
 20
250.2711307922041
 30
0.0
 10
-1123.215654789036
 20
250.2677047197246
 30
0.0
 10
-1123.020925050238
 20
250.2660170294416
 30
0.0
 10
-1122.923560180838
 20
250.2651731843
 30
0.0
 11
-1124.711221434686
 21
250.2806665489765
 31
0.0
 11
-1124.109485415961
 21
250.2754514019234
 31
0.0
 11
-1123.507749397233
 21
250.2702362552916
 31
0.0
 11
-1123.215654789036
 21
250.267704719746
 31
0.0
 11
-1122.923560180838
 21
250.2651731843
 31
0.0
  0
SPLINE
  5
1C8
330
7A
100
AcDbEntity
  8
0
  6
Continuous
 62
     1
100
AcDbSpline
210
0.0
220
0.0
230
1.0
 70
     8
 71
     3
 72
    15
 73
    11
 74
     9
 42
0.0000000001
 43
0.0000000001
 44
0.00000001
 40
0.0
 40
0.0
 40
0.0
 40
0.0
 40
0.082849954465109
 40
0.1691554483222423
 40
0.4131051764518695
 40
0.6317573315689211
 40
0.8497070004827635
 40
0.9774718778724955
 40
1.10468737556391
 40
1.213276208985846
 40
1.213276208985846
 40
1.213276208985846
 40
1.213276208985846
 10
-1128.26503240837
 20
187.2472803058828
 30
0.0
 10
-1128.237718671978
 20
187.2513743109907
 30
0.0
 10
-1128.181951986836
 20
187.2597330756264
 30
0.0
 10
-1128.046507657551
 20
187.2845952314069
 30
0.0
 10
-1127.868186217955
 20
187.3271187584565
 30
0.0
 10
-1127.6538422805
 20
187.4018162165664
 30
0.0
 10
-1127.484416078827
 20
187.4875725811897
 30
0.0
 10
-1127.361098621479
 20
187.5852236059818
 30
0.0
 10
-1127.280432304253
 20
187.6818947346076
 30
0.0
 10
-1127.268331617636
 20
187.7608354762735
 30
0.0
 10
-1127.262759203265
 20
187.7971880021432
 30
0.0
 11
-1128.26503240837
 21
187.2472803058828
 31
0.0
 11
-1128.183164576501
 21
187.2599993097724
 31
0.0
 11
-1128.098262018693
 21
187.2754975015248
 31
0.0
 11
-1127.861242760646
 21
187.3332325963068
 31
0.0
 11
-1127.655236218564
 21
187.4065133547403
 31
0.0
 11
-1127.462763136831
 21
187.5087687750761
 31
0.0
 11
-1127.363444384407
 21
187.5891407186341
 31
0.0
 11
-1127.288005235042
 21
187.6915746856369
 31
0.0
 11
-1127.262759203265
 21
187.7971880021432
 31
0.0
  0
SPLINE
  5
1C9
330
7A
100
AcDbEntity
  8
0
  6
Continuous
 62
     1
100
AcDbSpline
210
0.0
220
0.0
230
1.0
 70
     8
 71
     3
 72
     9
 73
     5
 74
     3
 42
0.0000000001
 43
0.0000000001
 44
0.00000001
 40
0.0
 40
0.0
 40
0.0
 40
0.0
 40
2.517111933517191
 40
5.033761910546123
 40
5.033761910546123
 40
5.033761910546123
 40
5.033761910546123
 10
-1127.276608220104
 20
194.0489346681709
 30
0.0
 10
-1127.274300173186
 20
193.209900531524
 30
0.0
 10
-1127.269684502938
 20
191.5319862431435
 30
0.0
 10
-1127.265067561465
 20
189.8540719582605
 30
0.0
 10
-1127.26275930258
 20
189.0151918082756
 30
0.0
 11
-1127.276608220104
 21
194.0489346681709
 31
0.0
 11
-1127.269683761486
 21
191.5318322591046
 31
0.0
 11
-1127.26275930258
 21
189.0151918082756
 31
0.0
  0
SPLINE
  5
1CA
330
7A
100
AcDbEntity
  8
0
  6
Continuous
 62
     1
100
AcDbSpline
210
0.0
220
0.0
230
1.0
 70
     8
 71
     3
 72
     9
 73
     5
 74
     3
 42
0.0000000001
 43
0.0000000001
 44
0.00000001
 40
0.0
 40
0.0
 40
0.0
 40
0.0
 40
0.9101300912405302
 40
1.820260182469212
 40
1.820260182469212
 40
1.820260182469212
 40
1.820260182469212
 10
-1124.110004907655
 20
236.6130350646526
 30
0.0
 10
-1124.413370621071
 20
236.6104535428539
 30
0.0
 10
-1125.020102047899
 20
236.6052904992567
 30
0.0
 10
-1125.626833474684
 20
236.6001274505055
 30
0.0
 10
-1125.930199188074
 20
236.5975459261298
 30
0.0
 11
-1124.110004907655
 21
236.6130350646526
 31
0.0
 11
-1125.020102047892
 21
236.6052904979682
 31
0.0
 11
-1125.930199188074
 21
236.5975459261298
 31
0.0
  0
SPLINE
  5
1CB
330
7A
100
AcDbEntity
  8
0
  6
Continuous
 62
     1
100
AcDbSpline
210
0.0
220
0.0
230
1.0
 70
     8
 71
     3
 72
    15
 73
    11
 74
     9
 42
0.0000000001
 43
0.0000000001
 44
0.00000001
 40
0.0
 40
0.0
 40
0.0
 40
0.0
 40
0.0951269989526752
 40
0.1712310653795442
 40
0.3761607049039074
 40
0.6328388463792136
 40
0.8211524258415644
 40
0.9778262315647603
 40
1.085905805996324
 40
1.21301103564837
 40
1.21301103564837
 40
1.21301103564837
 40
1.21301103564837
 10
-1128.26503243001
 20
164.8513768524344
 30
0.0
 10
-1128.233675153545
 20
164.846649003119
 30
0.0
 10
-1128.177231242609
 20
164.8381387517273
 30
0.0
 10
-1128.053945913838
 20
164.8152062479076
 30
0.0
 10
-1127.879215850742
 20
164.774511991745
 30
0.0
 10
-1127.673434409896
 20
164.7053142946458
 30
0.0
 10
-1127.492801110342
 20
164.6155394853808
 30
0.0
 10
-1127.372200156478
 20
164.5244444516367
 30
0.0
 10
-1127.284409405963
 20
164.4227087225276
 30
0.0
 10
-1127.270354924178
 20
164.3440041533812
 30
0.0
 10
-1127.262759203265
 20
164.3014684020813
 30
0.0
 11
-1128.26503243001
 21
164.8513768524344
 31
0.0
 11
-1128.171060455844
 21
164.8365980161763
 31
0.0
 11
-1128.096225644513
 21
164.8227567756356
 31
0.0
 11
-1127.896789064572
 21
164.7756270850234
 31
0.0
 11
-1127.654217035437
 21
164.691707605805
 31
0.0
 11
-1127.48680059933
 21
164.6054884598392
 31
0.0
 11
-1127.363173011502
 21
164.50924449417
 31
0.0
 11
-1127.296831212319
 21
164.4239218120131
 31
0.0
 11
-1127.262759203265
 21
164.3014684020813
 31
0.0
  0
SPLINE
  5
1CC
330
7A
100
AcDbEntity
  8
0
  6
Continuous
 62
     1
100
AcDbSpline
210
0.0
220
0.0
230
1.0
 70
     8
 71
     3
 72
    11
 73
     7
 74
     5
 42
0.0000000001
 43
0.0000000001
 44
0.00000001
 40
0.0
 40
0.0
 40
0.0
 40
0.0
 40
0.3262081927059328
 40
0.6502580918847873
 40
0.9787824878263841
 40
1.306587918180422
 40
1.306587918180422
 40
1.306587918180422
 40
1.306587918180422
 10
-1127.151384567184
 20
175.3960342398704
 30
0.0
 10
-1127.151373984573
 20
175.5047703039101
 30
0.0
 10
-1127.151352889369
 20
175.7215230008152
 30
0.0
 10
-1127.151391597965
 20
176.0477838293581
 30
0.0
 10
-1127.151382119205
 20
176.374577071377
 30
0.0
 10
-1127.151383751788
 20
176.593353680116
 30
0.0
 10
-1127.151384567186
 20
176.7026221568876
 30
0.0
 11
-1127.151384567184
 21
175.3960342398704
 31
0.0
 11
-1127.151364600021
 21
175.7222424319652
 31
0.0
 11
-1127.15138350144
 21
176.0462923305928
 31
0.0
 11
-1127.151384111196
 21
176.3748167265339
 31
0.0
 11
-1127.151384567186
 21
176.7026221568876
 31
0.0
  0
SPLINE
  5
1CD
330
7A
100
AcDbEntity
  8
0
  6
Continuous
 62
     1
100
AcDbSpline
210
0.0
220
0.0
230
1.0
 70
     8
 71
     3
 72
    17
 73
    13
 74
    11
 42
0.0000000001
 43
0.0000000001
 44
0.00000001
 40
0.0
 40
0.0
 40
0.0
 40
0.0
 40
0.0599908053906612
 40
0.1180403021387254
 40
0.1714427948506664
 40
0.2024677926426922
 40
0.2314172805116677
 40
0.255754471101843
 40
0.2671041755298363
 40
0.2755238208218141
 40
0.2785863722915982
 40
0.2802032414983866
 40
0.2802032414983866
 40
0.2802032414983866
 40
0.2802032414983866
 10
-1127.431426401118
 20
175.3878663416844
 30
0.0
 10
-1127.411430154848
 20
175.3880323211268
 30
0.0
 10
-1127.372084742898
 20
175.3883589088999
 30
0.0
 10
-1127.314939067533
 20
175.3888277624727
 30
0.0
 10
-1127.26744829179
 20
175.3892117822036
 30
0.0
 10
-1127.229657157689
 20
175.3895122069364
 30
0.0
 10
-1127.201554103444
 20
175.3897285629644
 30
0.0
 10
-1127.180009258558
 20
175.3898932733
 30
0.0
 10
-1127.165307400596
 20
175.3899882593677
 30
0.0
 10
-1127.157696964264
 20
175.3900475048856
 30
0.0
 10
-1127.153330583789
 20
175.3900518289701
 30
0.0
 10
-1127.151770789688
 20
175.3900452266738
 30
0.0
 10
-1127.151231837706
 20
175.3900429453979
 30
0.0
 11
-1127.431426401118
 21
175.3878663416844
 31
0.0
 11
-1127.371437654178
 21
175.3883633045024
 31
0.0
 11
-1127.313390108825
 21
175.3888392783604
 31
0.0
 11
-1127.259989357659
 21
175.3892705587554
 31
0.0
 11
-1127.228965333618
 21
175.3895163642188
 31
0.0
 11
-1127.200016710467
 21
175.3897401175004
 31
0.0
 11
-1127.17568018332
 21
175.389919817911
 31
0.0
 11
-1127.164330744362
 21
175.3899974448892
 31
0.0
 11
-1127.155911247406
 21
175.3900474233367
 31
0.0
 11
-1127.152848696253
 21
175.3900488165602
 31
0.0
 11
-1127.151231837706
 21
175.3900429453979
 31
0.0
  0
SPLINE
  5
1CE
330
7A
100
AcDbEntity
  8
0
  6
Continuous
 62
     1
100
AcDbSpline
210
0.0
220
0.0
230
1.0
 70
     8
 71
     3
 72
     9
 73
     5
 74
     3
 42
0.0000000001
 43
0.0000000001
 44
0.00000001
 40
0.0
 40
0.0
 40
0.0
 40
0.0
 40
0.0029957621908108
 40
0.0059943030617324
 40
0.0059943030617324
 40
0.0059943030617324
 40
0.0059943030617324
 10
-1127.151231837706
 20
176.7086134585031
 30
0.0
 10
-1127.151229182959
 20
176.7076146550929
 30
0.0
 10
-1127.151223871004
 20
176.7056161218455
 30
0.0
 10
-1127.151330985241
 20
176.7036204535732
 30
0.0
 10
-1127.151384567186
 20
176.7026221568876
 30
0.0
 11
-1127.151231837706
 21
176.7086134585031
 31
0.0
 11
-1127.151251953963
 21
176.7056177638524
 31
0.0
 11
-1127.151384567186
 21
176.7026221568876
 31
0.0
  0
SPLINE
  5
1CF
330
7A
100
AcDbEntity
  8
0
  6
Continuous
 62
     1
100
AcDbSpline
210
0.0
220
0.0
230
1.0
 70
     8
 71
     3
 72
     9
 73
     5
 74
     3
 42
0.0000000001
 43
0.0000000001
 44
0.00000001
 40
0.0
 40
0.0
 40
0.0
 40
0.0
 40
0.0029957586192681
 40
0.0059942959222772
 40
0.0059942959222772
 40
0.0059942959222772
 40
0.0059942959222772
 10
-1127.151231837706
 20
175.3900429453979
 30
0.0
 10
-1127.151229182959
 20
175.3910417476179
 30
0.0
 10
-1127.151223871003
 20
175.393040278486
 30
0.0
 10
-1127.151330985239
 20
175.3950359443755
 30
0.0
 10
-1127.151384567184
 20
175.3960342398704
 30
0.0
 11
-1127.151231837706
 21
175.3900429453979
 31
0.0
 11
-1127.151251953961
 21
175.393038636477
 31
0.0
 11
-1127.151384567184
 21
175.3960342398704
 31
0.0
  0
SPLINE
  5
1D0
330
7A
100
AcDbEntity
  8
0
  6
Continuous
 62
     1
100
AcDbSpline
210
0.0
220
0.0
230
1.0
 70
     8
 71
     3
 72
     9
 73
     5
 74
     3
 42
0.0000000001
 43
0.0000000001
 44
0.00000001
 40
0.0
 40
0.0
 40
0.0
 40
0.0
 40
0.6036876310270378
 40
1.212470117572837
 40
1.212470117572837
 40
1.212470117572837
 40
1.212470117572837
 10
-1127.26275930258
 20
189.0151918082756
 30
0.0
 10
-1127.262762806112
 20
188.813962597947
 30
0.0
 10
-1127.262769842745
 20
188.4098058921168
 30
0.0
 10
-1127.262762825807
 20
188.005649186286
 30
0.0
 10
-1127.262759302595
 20
187.8027216907842
 30
0.0
 11
-1127.26275930258
 21
189.0151918082756
 31
0.0
 11
-1127.262766329249
 21
188.4115041772895
 31
0.0
 11
-1127.262759302595
 21
187.8027216907842
 31
0.0
  0
SPLINE
  5
1D1
330
7A
100
AcDbEntity
  8
0
  6
Continuous
 62
     1
100
AcDbSpline
210
0.0
220
0.0
230
1.0
 70
     8
 71
     3
 72
     9
 73
     5
 74
     3
 42
0.0000000001
 43
0.0000000001
 44
0.00000001
 40
0.0
 40
0.0
 40
0.0
 40
0.0
 40
0.1927805116177267
 40
0.3489507217348269
 40
0.3489507217348269
 40
0.3489507217348269
 40
0.3489507217348269
 10
-1127.181707683892
 20
194.3754139568952
 30
0.0
 10
-1127.190214380303
 20
194.3111899488931
 30
0.0
 10
-1127.20561229489
 20
194.1949384992161
 30
0.0
 10
-1127.256976750875
 20
194.0897545409649
 30
0.0
 10
-1127.279964517869
 20
194.0426802699064
 30
0.0
 11
-1127.181707683892
 21
194.3754139568952
 31
0.0
 11
-1127.218205103437
 21
194.1861198364736
 31
0.0
 11
-1127.279964517869
 21
194.0426802699064
 31
0.0
  0
SPLINE
  5
1D2
330
7A
100
AcDbEntity
  8
0
  6
Continuous
 62
     1
100
AcDbSpline
210
0.0
220
0.0
230
1.0
 70
     8
 71
     3
 72
     9
 73
     5
 74
     3
 42
0.0000000001
 43
0.0000000001
 44
0.00000001
 40
0.0
 40
0.0
 40
0.0
 40
0.0
 40
0.0027723180278924
 40
0.0055336920625202
 40
0.0055336920625202
 40
0.0055336920625202
 40
0.0055336920625202
 10
-1127.262759302595
 20
187.8027216907842
 30
0.0
 10
-1127.262760826243
 20
187.8017975853152
 30
0.0
 10
-1127.262763867526
 20
187.799953022373
 30
0.0
 10
-1127.262760755967
 20
187.7981084595547
 30
0.0
 10
-1127.262759203265
 20
187.7971880021432
 30
0.0
 11
-1127.262759302595
 21
187.8027216907842
 31
0.0
 11
-1127.26276232924
 21
187.7999493744085
 31
0.0
 11
-1127.262759203265
 21
187.7971880021432
 31
0.0
  0
SPLINE
  5
1D3
330
7A
100
AcDbEntity
  8
0
  6
Continuous
 62
     1
100
AcDbSpline
210
0.0
220
0.0
230
1.0
 70
     8
 71
     3
 72
     9
 73
     5
 74
     3
 42
0.0000000001
 43
0.0000000001
 44
0.00000001
 40
0.0
 40
0.0
 40
0.0
 40
0.0
 40
0.5121448600872892
 40
1.024273760349723
 40
1.024273760349723
 40
1.024273760349723
 40
1.024273760349723
 10
-1124.960916565762
 20
235.9120925901959
 30
0.0
 10
-1125.131628695593
 20
235.9111107399158
 30
0.0
 10
-1125.473047635403
 20
235.9091470699527
 30
0.0
 10
-1125.814466583384
 20
235.9071848211574
 30
0.0
 10
-1125.985173397447
 20
235.9062037120472
 30
0.0
 11
-1124.960916565762
 21
235.9120925901959
 31
0.0
 11
-1125.4730529573
 21
235.9091473946586
 31
0.0
 11
-1125.985173397447
 21
235.9062037120472
 31
0.0
  0
SPLINE
  5
1D4
330
7A
100
AcDbEntity
  8
0
  6
Continuous
 62
     1
100
AcDbSpline
210
0.0
220
0.0
230
1.0
 70
     8
 71
     3
 72
     9
 73
     5
 74
     3
 42
0.0000000001
 43
0.0000000001
 44
0.00000001
 40
0.0
 40
0.0
 40
0.0
 40
0.0
 40
0.5123734885267206
 40
1.024264829309368
 40
1.024264829309368
 40
1.024264829309368
 40
1.024264829309368
 10
-1124.960842858075
 20
116.1855138277253
 30
0.0
 10
-1125.131631192503
 20
116.1864967459457
 30
0.0
 10
-1125.473047148107
 20
116.1884616574524
 30
0.0
 10
-1125.814463111886
 20
116.1904251479861
 30
0.0
 10
-1125.985090737147
 20
116.1914064311203
 30
0.0
 11
-1124.960842858075
 21
116.1855138277253
 31
0.0
 11
-1125.473207863406
 21
116.1884622268089
 31
0.0
 11
-1125.985090737147
 21
116.1914064311203
 31
0.0
  0
SPLINE
  5
1D5
330
7A
100
AcDbEntity
  8
0
  6
Continuous
 62
     1
100
AcDbSpline
210
0.0
220
0.0
230
1.0
 70
     8
 71
     3
 72
    15
 73
    11
 74
     9
 42
0.0000000001
 43
0.0000000001
 44
0.00000001
 40
0.0
 40
0.0
 40
0.0
 40
0.0
 40
0.1248335083695354
 40
0.231050613652685
 40
0.4162389148196523
 40
0.5760796308320978
 40
0.8326598444519491
 40
1.037509593271572
 40
1.12167798406416
 40
1.207475201094795
 40
1.207475201094795
 40
1.207475201094795
 40
1.207475201094795
 10
-1127.262759203265
 20
187.7971880021432
 30
0.0
 10
-1127.271083335669
 20
187.7556276664241
 30
0.0
 10
-1127.286490223813
 20
187.6787048818533
 30
0.0
 10
-1127.379955470012
 20
187.5712149846653
 30
0.0
 10
-1127.502625396202
 20
187.4833090593385
 30
0.0
 10
-1127.683576584862
 20
187.3953471925813
 30
0.0
 10
-1127.880469980381
 20
187.329336145888
 30
0.0
 10
-1128.057746165769
 20
187.2881142024552
 30
0.0
 10
-1128.180636259245
 20
187.2654807855106
 30
0.0
 10
-1128.236666892532
 20
187.2570677455472
 30
0.0
 10
-1128.264950687507
 20
187.2528209133506
 30
0.0
 11
-1127.262759203265
 21
187.7971880021432
 31
0.0
 11
-1127.298378955417
 21
187.677544205528
 31
0.0
 11
-1127.364053983893
 21
187.5940644829041
 31
0.0
 11
-1127.512391761029
 21
187.483201455869
 31
0.0
 11
-1127.655469779443
 21
187.4119432272762
 31
0.0
 11
-1127.898005833566
 21
187.3282194643906
 31
0.0
 11
-1128.097386016301
 21
187.2811985932383
 31
0.0
 11
-1128.180176839979
 21
187.2660329240044
 31
0.0
 11
-1128.264950687507
 21
187.2528209133506
 31
0.0
  0
SPLINE
  5
1D6
330
7A
100
AcDbEntity
  8
0
  6
Continuous
 62
     1
100
AcDbSpline
210
0.0
220
0.0
230
1.0
 70
     8
 71
     3
 72
     9
 73
     5
 74
     3
 42
0.0000000001
 43
0.0000000001
 44
0.00000001
 40
0.0
 40
0.0
 40
0.0
 40
0.0
 40
13.68690465286805
 40
27.3875724994004
 40
27.3875724994004
 40
27.3875724994004
 40
27.3875724994004
 10
-1127.338332391401
 20
215.1901899220158
 30
0.0
 10
-1127.325733718077
 20
210.6279057665367
 30
0.0
 10
-1127.300523702533
 20
201.4987497418493
 30
0.0
 10
-1127.275351652514
 20
192.3695936123998
 30
0.0
 10
-1127.262759302595
 20
187.8027216907842
 30
0.0
 11
-1127.338332391401
 21
215.1901899220158
 31
0.0
 11
-1127.300545853274
 21
201.5033374294141
 31
0.0
 11
-1127.262759302595
 21
187.8027216907842
 31
0.0
  0
SPLINE
  5
1D7
330
7A
100
AcDbEntity
  8
0
  6
Continuous
 62
     1
100
AcDbSpline
210
0.0
220
0.0
230
1.0
 70
     8
 71
     3
 72
     9
 73
     5
 74
     3
 42
0.0000000001
 43
0.0000000001
 44
0.00000001
 40
0.0
 40
0.0
 40
0.0
 40
0.0
 40
20.19851206295151
 40
40.40351777992983
 40
40.40351777992983
 40
40.40351777992983
 40
40.40351777992983
 10
-1124.574449251512
 20
117.3975311216495
 30
0.0
 10
-1125.007938129885
 20
124.116399050152
 30
0.0
 10
-1125.875055249707
 20
137.5562949674448
 30
0.0
 10
-1126.741674341929
 20
150.996223007288
 30
0.0
 10
-1127.175053529557
 20
157.7172670599348
 30
0.0
 11
-1124.574449251512
 21
117.3975311216495
 31
0.0
 11
-1125.874791419748
 21
137.5541429352134
 31
0.0
 11
-1127.175053529557
 21
157.7172670599348
 31
0.0
  0
SPLINE
  5
1D8
330
7A
100
AcDbEntity
  8
0
  6
Continuous
 62
     1
100
AcDbSpline
210
0.0
220
0.0
230
1.0
 70
     8
 71
     3
 72
     9
 73
     5
 74
     3
 42
0.0000000001
 43
0.0000000001
 44
0.00000001
 40
0.0
 40
0.0
 40
0.0
 40
0.0
 40
13.70044702016326
 40
27.38729061965803
 40
27.38729061965803
 40
27.38729061965803
 40
27.38729061965803
 10
-1127.262759302596
 20
164.2959347005892
 30
0.0
 10
-1127.275356961955
 20
159.7291364026892
 30
0.0
 10
-1127.300539772231
 20
150.6000742631929
 30
0.0
 10
-1127.325748748546
 20
141.4710121959139
 30
0.0
 10
-1127.338346975983
 20
136.9087483904084
 30
0.0
 11
-1127.262759302596
 21
164.2959347005892
 31
0.0
 11
-1127.300558828684
 21
150.5955398249614
 31
0.0
 11
-1127.338346975983
 21
136.9087483904084
 31
0.0
  0
SPLINE
  5
1D9
330
7A
100
AcDbEntity
  8
0
  6
Continuous
 62
     1
100
AcDbSpline
210
0.0
220
0.0
230
1.0
 70
     8
 71
     3
 72
     9
 73
     5
 74
     3
 42
0.0000000001
 43
0.0000000001
 44
0.00000001
 40
0.0
 40
0.0
 40
0.0
 40
0.0
 40
2.510825151153262
 40
5.022104783789766
 40
5.022104783789766
 40
5.022104783789766
 40
5.022104783789766
 10
-1127.262759203265
 20
163.0780037171573
 30
0.0
 10
-1127.265062088835
 20
162.2410651683626
 30
0.0
 10
-1127.269668276816
 20
160.567036577519
 30
0.0
 10
-1127.274273214156
 20
158.8930079832347
 30
0.0
 10
-1127.276575891191
 20
158.0559179394652
 30
0.0
 11
-1127.262759203265
 21
163.0780037171573
 31
0.0
 11
-1127.26966754737
 21
160.5671880699132
 31
0.0
 11
-1127.276575891191
 21
158.0559179394652
 31
0.0
  0
SPLINE
  5
1DA
330
7A
100
AcDbEntity
  8
0
  6
Continuous
 62
     1
100
AcDbSpline
210
0.0
220
0.0
230
1.0
 70
     8
 71
     3
 72
     9
 73
     5
 74
     3
 42
0.0000000001
 43
0.0000000001
 44
0.00000001
 40
0.0
 40
0.0
 40
0.0
 40
0.0
 40
0.6115364890835547
 40
1.217930983514246
 40
1.217930983514246
 40
1.217930983514246
 40
1.217930983514246
 10
-1127.262759302596
 20
164.2959347005892
 30
0.0
 10
-1127.26276283596
 20
164.0920892042413
 30
0.0
 10
-1127.262769872978
 20
163.6861122097631
 30
0.0
 10
-1127.262762749812
 20
163.2801352152867
 30
0.0
 10
-1127.262759203265
 20
163.0780037171573
 30
0.0
 11
-1127.262759302596
 21
164.2959347005892
 31
0.0
 11
-1127.262766332687
 21
163.6843982115461
 31
0.0
 11
-1127.262759203265
 21
163.0780037171573
 31
0.0
  0
SPLINE
  5
1DB
330
7A
100
AcDbEntity
  8
0
  6
Continuous
 62
     1
100
AcDbSpline
210
0.0
220
0.0
230
1.0
 70
     8
 71
     3
 72
     9
 73
     5
 74
     3
 42
0.0000000001
 43
0.0000000001
 44
0.00000001
 40
0.0
 40
0.0
 40
0.0
 40
0.0
 40
0.0207665763109178
 40
0.0387227267651686
 40
0.0387227267651686
 40
0.0387227267651686
 40
0.0387227267651686
 10
-1127.266025771516
 20
163.1165515154682
 30
0.0
 10
-1127.265000681658
 20
163.1096965676418
 30
0.0
 10
-1127.263089231553
 20
163.0969143801644
 30
0.0
 10
-1127.26286375787
 20
163.0839947093364
 30
0.0
 10
-1127.262759203265
 20
163.0780037171573
 30
0.0
 11
-1127.266025771516
 21
163.1165515154682
 31
0.0
 11
-1127.263435398876
 21
163.0959471309526
 31
0.0
 11
-1127.262759203265
 21
163.0780037171573
 31
0.0
  0
SPLINE
  5
1DC
330
7A
100
AcDbEntity
  8
0
  6
Continuous
 62
     1
100
AcDbSpline
210
0.0
220
0.0
230
1.0
 70
    24
 71
     3
 72
     9
 73
     5
 74
     3
 42
0.0000000001
 43
0.0000000001
 44
0.00000001
 40
0.0
 40
0.0
 40
0.0
 40
0.0
 40
0.910761522244321
 40
1.82152304448903
 40
1.82152304448903
 40
1.82152304448903
 40
1.82152304448903
 10
-1125.929414755072
 20
115.4913024011152
 30
0.0
 10
-1125.625838504828
 20
115.4887270264369
 30
0.0
 10
-1125.018686004341
 20
115.4835762770804
 30
0.0
 10
-1124.411533503852
 20
115.4784255278389
 30
0.0
 10
-1124.107957253608
 20
115.4758501532182
 30
0.0
 11
-1125.929414755072
 21
115.4913024011152
 31
0.0
 11
-1125.018686004341
 21
115.4835762771092
 31
0.0
 11
-1124.107957253608
 21
115.4758501532182
 31
0.0
  0
SPLINE
  5
1DD
330
7A
100
AcDbEntity
  8
0
  6
Continuous
 62
     1
100
AcDbSpline
210
0.0
220
0.0
230
1.0
 70
     8
 71
     3
 72
     9
 73
     5
 74
     3
 42
0.0000000001
 43
0.0000000001
 44
0.00000001
 40
0.0
 40
0.0
 40
0.0
 40
0.0
 40
0.1842999600576471
 40
0.362633023942818
 40
0.362633023942818
 40
0.362633023942818
 40
0.362633023942818
 10
-1127.279963246097
 20
158.0620056837301
 30
0.0
 10
-1127.25235709696
 20
158.0065764014959
 30
0.0
 10
-1127.198038575469
 20
157.8975124156691
 30
0.0
 10
-1127.182630702606
 20
157.776686138621
 30
0.0
 10
-1127.175053529557
 20
157.7172670599348
 30
0.0
 11
-1127.279963246097
 21
158.0620056837301
 31
0.0
 11
-1127.207195219578
 21
157.8926796975562
 31
0.0
 11
-1127.175053529557
 21
157.7172670599348
 31
0.0
  0
SPLINE
  5
1DE
330
7A
100
AcDbEntity
  8
0
  6
Continuous
 62
     1
100
AcDbSpline
210
0.0
220
0.0
230
1.0
 70
     8
 71
     3
 72
     9
 73
     5
 74
     3
 42
0.0000000001
 43
0.0000000001
 44
0.00000001
 40
0.0
 40
0.0
 40
0.0
 40
0.0
 40
0.0027723210107958
 40
0.0055337049133938
 40
0.0055337049133938
 40
0.0055337049133938
 40
0.0055337049133938
 10
-1127.262759302596
 20
164.2959347005892
 30
0.0
 10
-1127.2627608262
 20
164.2968588070525
 30
0.0
 10
-1127.262763867396
 20
164.2987033742785
 30
0.0
 10
-1127.262760755925
 20
164.3005479413805
 30
0.0
 10
-1127.262759203265
 20
164.3014684020813
 30
0.0
 11
-1127.262759302596
 21
164.2959347005892
 31
0.0
 11
-1127.262762329154
 21
164.298707019948
 31
0.0
 11
-1127.262759203265
 21
164.3014684020813
 31
0.0
  0
SPLINE
  5
1DF
330
7A
100
AcDbEntity
  8
0
  6
Continuous
 62
     1
100
AcDbSpline
210
0.0
220
0.0
230
1.0
 70
    24
 71
     3
 72
    11
 73
     7
 74
     5
 42
0.0000000001
 43
0.0000000001
 44
0.00000001
 40
0.0
 40
0.0
 40
0.0
 40
0.0
 40
0.2914708347764935
 40
0.582941669552761
 40
1.184610620168648
 40
1.786279570784765
 40
1.786279570784765
 40
1.786279570784765
 40
1.786279570784765
 10
-1122.92403588472
 20
101.8235883494591
 30
0.0
 10
-1123.021189167599
 20
101.8227448015428
 30
0.0
 10
-1123.215495733357
 20
101.8210577057102
 30
0.0
 10
-1123.610351056604
 20
101.8176293152808
 30
0.0
 10
-1124.10860185446
 20
101.8133031781717
 30
0.0
 10
-1124.509699369439
 20
101.8098205889784
 30
0.0
 10
-1124.710248126928
 20
101.8080792943817
 30
0.0
 11
-1122.92403588472
 21
101.8235883494591
 31
0.0
 11
-1123.215495733357
 21
101.8210577057101
 31
0.0
 11
-1123.506955581994
 21
101.818527061961
 31
0.0
 11
-1124.108601854461
 21
101.8133031781716
 31
0.0
 11
-1124.710248126928
 21
101.8080792943817
 31
0.0
  0
SPLINE
  5
1E0
330
7A
100
AcDbEntity
  8
0
  6
Continuous
 62
     1
100
AcDbSpline
210
0.0
220
0.0
230
1.0
 70
     8
 71
     3
 72
    11
 73
     7
 74
     5
 42
0.0000000001
 43
0.0000000001
 44
0.00000001
 40
0.0
 40
0.0
 40
0.0
 40
0.0
 40
1.001666275972157
 40
2.003332551944356
 40
5.007038426584898
 40
8.010779121998496
 40
8.010779121998496
 40
8.010779121998496
 40
8.010779121998496
 10
-1128.348048530992
 20
62.05316207784105
 30
0.0
 10
-1128.014159783812
 20
62.05324998483616
 30
0.0
 10
-1127.346382289453
 20
62.05342579882636
 30
0.0
 10
-1125.677369514945
 20
62.0537651267859
 30
0.0
 10
-1123.340998571449
 20
62.05405346637316
 30
0.0
 10
-1121.338516381376
 20
62.05394075067782
 30
0.0
 10
-1120.337269482878
 20
62.05388439250348
 30
0.0
 11
-1128.348048530992
 21
62.05316207784105
 31
0.0
 11
-1127.34638228715
 21
62.05341578688713
 31
0.0
 11
-1126.344716032565
 21
62.05362277683477
 31
0.0
 11
-1123.34101017725
 21
62.05396350375342
 31
0.0
 11
-1120.337269482878
 21
62.05388439250348
 31
0.0
  0
SPLINE
  5
1E1
330
7A
100
AcDbEntity
  8
0
  6
Continuous
 62
     1
100
AcDbSpline
210
0.0
220
0.0
230
1.0
 70
     8
 71
     3
 72
    18
 73
    14
 74
    12
 42
0.0000000001
 43
0.0000000001
 44
0.00000001
 40
0.0
 40
0.0
 40
0.0
 40
0.0
 40
0.7832440408271286
 40
1.532713857091342
 40
1.893537296729958
 40
2.341924146057882
 40
2.828112877656134
 40
3.245869218557437
 40
3.525431989191123
 40
3.693001879678008
 40
3.898974425643636
 40
4.005417131909073
 40
4.062488123850845
 40
4.062488123850845
 40
4.062488123850845
 40
4.062488123850845
 10
-1120.335847665246
 20
286.0737145188715
 30
0.0
 10
-1120.300050450094
 20
286.3323458943681
 30
0.0
 10
-1120.229999629598
 20
286.8384562155952
 30
0.0
 10
-1120.166137978441
 20
287.4665564907491
 30
0.0
 10
-1120.125671487127
 20
287.9845469529932
 30
0.0
 10
-1120.101461344265
 20
288.4157404275532
 30
0.0
 10
-1120.090345021802
 20
288.8664057527405
 30
0.0
 10
-1120.098723593872
 20
289.2612712242089
 30
0.0
 10
-1120.12220421804
 20
289.548269426115
 30
0.0
 10
-1120.156580735748
 20
289.7647608004633
 30
0.0
 10
-1120.197566246671
 20
289.9153555708015
 30
0.0
 10
-1120.262710647396
 20
290.0332577976526
 30
0.0
 10
-1120.317296964056
 20
290.0462891293083
 30
0.0
 10
-1120.336349161348
 20
290.0508374395236
 30
0.0
 11
-1120.335847665246
 21
286.0737145188715
 31
0.0
 11
-1120.23325010188
 21
286.8502098295351
 31
0.0
 11
-1120.156958352494
 21
287.5957865019617
 31
0.0
 11
-1120.129114911391
 21
287.9555340486944
 31
0.0
 11
-1120.10442002901
 21
288.4032403468793
 31
0.0
 11
-1120.0937832965
 21
288.8893127104782
 31
0.0
 11
-1120.104724730611
 21
289.3069257435397
 31
0.0
 11
-1120.129699574076
 21
289.5853707110257
 31
0.0
 11
-1120.15702152532
 21
289.7506982017162
 31
0.0
 11
-1120.218411791945
 21
289.9473093022556
 31
0.0
 11
-1120.282330327083
 21
290.0324237580362
 31
0.0
 11
-1120.336349161348
 21
290.0508374395236
 31
0.0
  0
SPLINE
  5
1E2
330
7A
100
AcDbEntity
  8
0
  6
Continuous
 62
     3
100
AcDbSpline
210
0.0
220
0.0
230
1.0
 70
     8
 71
     3
 72
    30
 73
    26
 74
    24
 42
0.0000000001
 43
0.0000000001
 44
0.00000001
 40
0.0
 40
0.0
 40
0.0
 40
0.0
 40
0.0876750396230986
 40
0.2075507054451941
 40
0.3560675905389502
 40
0.5296741613870206
 40
0.7248289315930032
 40
0.9380030274047677
 40
1.165683496851532
 40
1.318091372956667
 40
1.500056872533352
 40
1.703320504795023
 40
1.919664892227659
 40
2.140937640784681
 40
2.343546464764747
 40
2.505626078829721
 40
2.631550098319326
 40
2.725599536853557
 40
2.791926086729921
 40
2.837030615929836
 40
2.902581989401549
 40
2.970719330372539
 40
3.022294183883409
 40
3.053465242646618
 40
3.071462075825224
 40
3.071462075825224
 40
3.071462075825224
 40
3.071462075825224
 10
-1125.08386848076
 20
286.0613782321734
 30
0.0
 10
-1125.079688513147
 20
286.0903027963951
 30
0.0
 10
-1125.069793390994
 20
286.158775120271
 30
0.0
 10
-1125.053383322443
 20
286.2763251104201
 30
0.0
 10
-1125.033941053717
 20
286.4223709532843
 30
0.0
 10
-1125.012541786631
 20
286.5934661248398
 30
0.0
 10
-1124.990243288828
 20
286.7861619244892
 30
0.0
 10
-1124.968112165726
 20
286.9970111903324
 30
0.0
 10
-1124.949864093093
 20
287.1939277437207
 30
0.0
 10
-1124.934708116813
 20
287.3806675689164
 30
0.0
 10
-1124.9221858725
 20
287.5594466769489
 30
0.0
 10
-1124.91099363812
 20
287.7596669451342
 30
0.0
 10
-1124.902878094185
 20
287.9731540026664
 30
0.0
 10
-1124.899647390046
 20
288.186562195202
 30
0.0
 10
-1124.902339998389
 20
288.3818987150561
 30
0.0
 10
-1124.910277747445
 20
288.5452810812185
 30
0.0
 10
-1124.92146192773
 20
288.6721764340239
 30
0.0
 10
-1124.933988869418
 20
288.7668190156946
 30
0.0
 10
-1124.946201032589
 20
288.834240514685
 30
0.0
 10
-1124.95927033585
 20
288.8917852551731
 30
0.0
 10
-1124.976142752337
 20
288.9490148460047
 30
0.0
 10
-1125.000221309419
 20
289.0061428669559
 30
0.0
 10
-1125.030791990966
 20
289.0472673528064
 30
0.0
 10
-1125.061346683567
 20
289.0643592467994
 30
0.0
 10
-1125.077828369217
 20
289.0652495765746
 30
0.0
 10
-1125.083861130343
 20
289.0655754623469
 30
0.0
 11
-1125.08386848076
 21
286.0613782321734
 31
0.0
 11
-1125.071387418894
 21
286.1481603482321
 31
0.0
 11
-1125.054815737011
 21
286.2668850491828
 31
0.0
 11
-1125.035223953541
 21
286.4141040261472
 31
0.0
 11
-1125.013682586919
 21
286.5863689702468
 31
0.0
 11
-1124.991262155575
 21
286.7802315726036
 31
0.0
 11
-1124.969033177943
 21
286.9922435243388
 31
0.0
 11
-1124.948066172455
 21
287.2189565165743
 31
0.0
 11
-1124.935760378637
 21
287.3708667800109
 31
0.0
 11
-1124.923084735092
 21
287.5523902525893
 31
0.0
 11
-1124.911822057647
 21
287.7553416169527
 31
0.0
 11
-1124.903755162128
 21
287.9715355557445
 31
0.0
 11
-1124.900666864364
 21
288.1927867516077
 31
0.0
 11
-1124.903830172575
 21
288.3953708798995
 31
0.0
 11
-1124.912057124295
 21
288.5572415645859
 31
0.0
 11
-1124.923438867192
 21
288.6826501552528
 31
0.0
 11
-1124.936066548937
 21
288.7758480014851
 31
0.0
 11
-1124.948031317201
 21
288.8410864528684
 31
0.0
 11
-1124.958137754057
 21
288.8850441426213
 31
0.0
 11
-1124.977042991926
 21
288.9478101728061
 31
0.0
 11
-1125.005191147708
 21
289.0098615914899
 31
0.0
 11
-1125.038162600023
 21
289.0495207499142
 31
0.0
 11
-1125.065973102916
 21
289.0635994868338
 31
0.0
 11
-1125.083861130343
 21
289.0655754623469
 31
0.0
  0
SPLINE
  5
1E3
330
7A
100
AcDbEntity
  8
0
  6
Continuous
 62
     3
100
AcDbSpline
210
0.0
220
0.0
230
1.0
 70
     8
 71
     3
 72
    15
 73
    11
 74
     9
 42
0.0000000001
 43
0.0000000001
 44
0.00000001
 40
0.0
 40
0.0
 40
0.0
 40
0.0
 40
0.1640912558148603
 40
0.3356973503073922
 40
0.5126097474351252
 40
0.6921081697964158
 40
0.8712772189378564
 40
1.047264186303469
 40
1.21750989788582
 40
1.380019613768857
 40
1.380019613768857
 40
1.380019613768857
 40
1.380019613768857
 10
-1125.083861130343
 20
289.0655754623469
 30
0.0
 10
-1125.073272573029
 20
289.1193577844348
 30
0.0
 10
-1125.051610537376
 20
289.2293854816976
 30
0.0
 10
-1124.984093064853
 20
289.387700023004
 30
0.0
 10
-1124.889140881552
 20
289.5367667186215
 30
0.0
 10
-1124.767276365388
 20
289.6686149661981
 30
0.0
 10
-1124.623887536492
 20
289.776164955609
 30
0.0
 10
-1124.466549436551
 20
289.8547604095426
 30
0.0
 10
-1124.303177896682
 20
289.9047739226423
 30
0.0
 10
-1124.19240735846
 20
289.9141474743529
 30
0.0
 10
-1124.138309702317
 20
289.9187252906695
 30
0.0
 11
-1125.083861130343
 21
289.0655754623469
 31
0.0
 11
-1125.046706639558
 21
289.2254050092066
 31
0.0
 11
-1124.980726441798
 21
289.3838198606902
 31
0.0
 11
-1124.885416331806
 21
289.5328634086582
 31
0.0
 11
-1124.763549566632
 21
289.6646517813476
 31
0.0
 11
-1124.620207480054
 21
289.7721440805401
 31
0.0
 11
-1124.462892088367
 21
289.8510318503204
 31
0.0
 11
-1124.299669286672
 21
289.8994252312636
 31
0.0
 11
-1124.138309702317
 21
289.9187252906695
 31
0.0
  0
SPLINE
  5
1E4
330
7A
100
AcDbEntity
  8
0
  6
Continuous
 62
     3
100
AcDbSpline
210
0.0
220
0.0
230
1.0
 70
     8
 71
     3
 72
    21
 73
    17
 74
    15
 42
0.0000000001
 43
0.0000000001
 44
0.00000001
 40
0.0
 40
0.0
 40
0.0
 40
0.0
 40
0.0999904700553176
 40
0.327131905486566
 40
0.6564023140243437
 40
1.06280886929842
 40
1.521403040645025
 40
2.100839911329885
 40
2.531927162249504
 40
2.818291550782861
 40
3.238916651084551
 40
3.518669636348347
 40
3.683856120722186
 40
3.805717028574157
 40
3.935724823545974
 40
4.020481190507528
 40
4.020481190507528
 40
4.020481190507528
 40
4.020481190507528
 10
-1124.13832191036
 20
285.9415778955727
 30
0.0
 10
-1124.134791119485
 20
285.9747206420451
 30
0.0
 10
-1124.12323967517
 20
286.083151473509
 30
0.0
 10
-1124.102519868966
 20
286.3009739160231
 30
0.0
 10
-1124.074134132036
 20
286.6206574731257
 30
0.0
 10
-1124.042930409393
 20
287.0175317836719
 30
0.0
 10
-1124.01085813516
 20
287.497956390639
 30
0.0
 10
-1123.98635591142
 20
287.987075616241
 30
0.0
 10
-1123.973458574609
 20
288.4192360815099
 30
0.0
 10
-1123.969689833729
 20
288.7985273358902
 30
0.0
 10
-1123.974178450921
 20
289.127753662853
 30
0.0
 10
-1123.991257836301
 20
289.4152675926675
 30
0.0
 10
-1124.010287861564
 20
289.604431292319
 30
0.0
 10
-1124.036952392517
 20
289.7385119475083
 30
0.0
 10
-1124.05614185053
 20
289.8570236079321
 30
0.0
 10
-1124.115058379197
 20
289.9012653506663
 30
0.0
 10
-1124.138309702317
 20
289.9187252906695
 30
0.0
 11
-1124.13832191036
 21
285.9415778955727
 31
0.0
 11
-1124.127844012913
 21
286.0410178662434
 31
0.0
 11
-1124.105936861877
 21
286.2671003919353
 31
0.0
 11
-1124.076902555696
 21
286.5950882133604
 31
0.0
 11
-1124.045043192813
 21
287.0002440712306
 31
0.0
 11
-1124.014660871674
 21
287.4578307062575
 31
0.0
 11
-1123.986118868563
 21
288.036564186512
 31
0.0
 11
-1123.973737513144
 21
288.4674735968796
 31
0.0
 11
-1123.971046178156
 21
288.7538253381631
 31
0.0
 11
-1123.978654747588
 21
289.1743816181959
 31
0.0
 11
-1123.995953252208
 21
289.4535992653852
 31
0.0
 11
-1124.014628575141
 21
289.6177266760549
 31
0.0
 11
-1124.036022939431
 21
289.7376948469968
 31
0.0
 11
-1124.07582506062
 21
289.8614600194092
 31
0.0
 11
-1124.138309702317
 21
289.9187252906695
 31
0.0
  0
SPLINE
  5
1E5
330
7A
100
AcDbEntity
  8
0
  6
Continuous
 62
     3
100
AcDbSpline
210
0.0
220
0.0
230
1.0
 70
     8
 71
     3
 72
    15
 73
    11
 74
     9
 42
0.0000000001
 43
0.0000000001
 44
0.00000001
 40
0.0
 40
0.0
 40
0.0
 40
0.0
 40
0.0372879070951993
 40
0.1036884050489392
 40
0.1995806010836019
 40
0.3223766842840561
 40
0.4668148825988297
 40
0.6254959893174354
 40
0.7902040265898965
 40
0.9531662720738102
 40
0.9531662720738102
 40
0.9531662720738102
 40
0.9531662720738102
 10
-1125.08386848076
 20
286.0613782321734
 30
0.0
 10
-1125.071493489106
 20
286.0602159774147
 30
0.0
 10
-1125.037081712019
 20
286.0569840357054
 30
0.0
 10
-1124.970958968481
 20
286.0496387524446
 30
0.0
 10
-1124.876551696487
 20
286.0387873161601
 30
0.0
 10
-1124.756385533203
 20
286.0242420533073
 30
0.0
 10
-1124.615523380449
 20
286.0065235851784
 30
0.0
 10
-1124.460894816156
 20
285.9863192927453
 30
0.0
 10
-1124.300240365958
 20
285.9645830230396
 30
0.0
 10
-1124.192102680266
 20
285.9492189854187
 30
0.0
 10
-1124.13832191036
 20
285.9415778955727
 30
0.0
 11
-1125.08386848076
 21
286.0613782321734
 31
0.0
 11
-1125.046751126838
 21
286.0578159220587
 31
0.0
 11
-1124.980734111249
 21
286.0506899287071
 31
0.0
 11
-1124.885470579067
 21
286.0397275979026
 31
0.0
 11
-1124.76355824968
 21
286.0250217489743
 31
0.0
 11
-1124.620247892287
 21
286.0070069052003
 31
0.0
 11
-1124.462902359125
 21
285.9864623968454
 31
0.0
 11
-1124.299689025741
 21
285.9643231703963
 31
0.0
 11
-1124.13832191036
 21
285.9415778955727
 31
0.0
  0
SPLINE
  5
1E6
330
7A
100
AcDbEntity
  8
0
  6
Continuous
 62
     3
100
AcDbSpline
210
0.0
220
0.0
230
1.0
 70
     8
 71
     3
 72
    11
 73
     7
 74
     5
 42
0.0000000001
 43
0.0000000001
 44
0.00000001
 40
0.0
 40
0.0
 40
0.0
 40
0.0
 40
0.996363156455307
 40
1.992726312910907
 40
4.480802964718122
 40
7.959530134045311
 40
7.959530134045311
 40
7.959530134045311
 40
7.959530134045311
 10
-1133.043390892862
 20
289.0677998397337
 30
0.0
 10
-1132.711269885382
 20
289.0676267974033
 30
0.0
 10
-1132.047027870422
 20
289.0672807127427
 30
0.0
 10
-1130.553426993609
 20
289.0666994997198
 30
0.0
 10
-1128.232371452419
 20
289.0659266903596
 30
0.0
 10
-1126.243436850477
 20
289.0657048173224
 30
0.0
 10
-1125.083861130343
 20
289.0655754623469
 30
0.0
 11
-1133.043390892862
 21
289.0677998397337
 31
0.0
 11
-1132.047027860475
 21
289.0673026138781
 31
0.0
 11
-1131.050664786041
 21
289.0668983278583
 31
0.0
 11
-1128.562588258108
 21
289.0661132059002
 31
0.0
 11
-1125.083861130343
 21
289.0655754623469
 31
0.0
  0
SPLINE
  5
1E7
330
7A
100
AcDbEntity
  8
0
  6
Continuous
 62
     3
100
AcDbSpline
210
0.0
220
0.0
230
1.0
 70
     8
 71
     3
 72
    11
 73
     7
 74
     5
 42
0.0000000001
 43
0.0000000001
 44
0.00000001
 40
0.0
 40
0.0
 40
0.0
 40
0.0
 40
0.9950731637716884
 40
1.990146327544155
 40
4.475445915222142
 40
7.950741101927851
 40
7.950741101927851
 40
7.950741101927851
 40
7.950741101927851
 10
-1132.089050449746
 20
289.9208884381078
 30
0.0
 10
-1131.757359439934
 20
289.9207154614637
 30
0.0
 10
-1131.09397742031
 20
289.9203695081756
 30
0.0
 10
-1129.602162230152
 20
289.9197778867255
 30
0.0
 10
-1127.283606339196
 20
289.9191017421861
 30
0.0
 10
-1125.296741425025
 20
289.9188639400337
 30
0.0
 10
-1124.138309702317
 20
289.9187252906695
 30
0.0
 11
-1132.089050449746
 21
289.9208884381078
 31
0.0
 11
-1131.093977410697
 21
289.9203902257745
 31
0.0
 11
-1130.098904329501
 21
289.9199848371237
 31
0.0
 11
-1127.613604848292
 21
289.9192573674077
 31
0.0
 11
-1124.138309702317
 21
289.9187252906695
 31
0.0
  0
SPLINE
  5
1E8
330
7A
100
AcDbEntity
  8
0
  6
Continuous
 62
     1
100
AcDbSpline
210
0.0
220
0.0
230
1.0
 70
     8
 71
     3
 72
    11
 73
     7
 74
     5
 42
0.0000000001
 43
0.0000000001
 44
0.00000001
 40
0.0
 40
0.0
 40
0.0
 40
0.0
 40
3.002844537899112
 40
6.005735645591654
 40
7.008262401212289
 40
8.01078915683196
 40
8.01078915683196
 40
8.01078915683196
 40
8.01078915683196
 10
-1120.336349161348
 20
290.0508374395236
 30
0.0
 10
-1121.337297340669
 20
290.0507810032173
 30
0.0
 10
-1123.339209222575
 20
290.0506681297296
 30
0.0
 10
-1125.675296684499
 20
290.0509560849612
 30
0.0
 10
-1127.34461152318
 20
290.0512951593175
 30
0.0
 10
-1128.012962670656
 20
290.0514709801744
 30
0.0
 10
-1128.347138244394
 20
290.0515588906028
 30
0.0
 11
-1120.336349161348
 21
290.0508374395236
 31
0.0
 11
-1123.339193698197
 21
290.0507580384445
 31
0.0
 11
-1126.342084786623
 21
290.0510982036667
 31
0.0
 11
-1127.344611520879
 21
290.0513051753471
 31
0.0
 11
-1128.347138244394
 21
290.0515588906028
 31
0.0
  0
ENDBLK
  5
7C
330
7A
100
AcDbEntity
  8
0
100
AcDbBlockEnd
  0
BLOCK
  5
80
330
7D
100
AcDbEntity
  8
0
100
AcDbBlockBegin
  2
0059_1502_9000__2
 70
     0
 10
-1141.355537633784
 20
290.0515588906028
 30
0.0
  3
0059_1502_9000__2
  1

  0
INSERT
  5
7E
330
7D
100
AcDbEntity
  8
0
100
AcDbBlockReference
  2
0059_1501_0000
 10
-1124.988831175544
 20
288.5517301343067
 30
0.0
  0
INSERT
  5
7F
330
7D
100
AcDbEntity
  8
0
100
AcDbBlockReference
  2
0059_1502_0000__1
 10
-1141.355537633784
 20
290.0515588906028
 30
0.0
  0
ENDBLK
  5
81
330
7D
100
AcDbEntity
  8
0
100
AcDbBlockEnd
  0
BLOCK
  5
86
330
82
100
AcDbEntity
  8
0
100
AcDbBlockBegin
  2
0084_0085A__3
 70
     0
 10
-1141.355537633784
 20
290.0515588906028
 30
0.0
  3
0084_0085A__3
  1

  0
INSERT
  5
83
330
82
100
AcDbEntity
  8
0
100
AcDbBlockReference
  2
0059_1509_0000
 10
-963.0515580339855
 20
222.0493282021988
 30
0.0
  0
INSERT
  5
84
330
82
100
AcDbEntity
  8
0
100
AcDbBlockReference
  2
0059_1500_0000
 10
-1069.451558034036
 20
285.0493282021988
 30
0.0
  0
INSERT
  5
85
330
82
100
AcDbEntity
  8
0
100
AcDbBlockReference
  2
0059_1502_9000__2
 10
-1141.355537633784
 20
290.0515588906028
 30
0.0
  0
ENDBLK
  5
87
330
82
100
AcDbEntity
  8
0
100
AcDbBlockEnd
  0
BLOCK
  5
8A
330
88
100
AcDbEntity
  8
0
100
AcDbBlockBegin
  2
Drfsicht1
 70
     0
 10
-1046.703546475056
 20
176.0000003527925
 30
0.0
  3
Drfsicht1
  1

  0
INSERT
  5
89
330
88
100
AcDbEntity
  8
0
100
AcDbBlockReference
  2
0084_0085A__3
 10
-1141.355537633784
 20
290.0515588906028
 30
0.0
  0
MTEXT
  5
1EA
330
88
100
AcDbEntity
  8
1
 62
     4
100
AcDbMText
 10
-1046.703547833846
 20
57.01310818233921
 30
0.0
 40
3.5
 41
0.0
 71
     2
 72
     1
  1
 
  7
CONVERTER_11
 73
     1
 44
1.32052821128451
  0
DIMENSION
  5
1F6
330
88
100
AcDbEntity
  8
1
100
AcDbDimension
  2
*D14
 10
-930.270217154453
 20
105.0519325121552
 30
0.0
 11
-935.770217154453
 21
180.877317627855
 31
0.0
 70
    32
  1
<>
 71
     5
 42
-1.0
 53
90.0
  3
ME10_DIM_10
100
AcDbAlignedDimension
 13
-1067.951558034036
 23
252.0414741487902
 33
0.0
 14
-1068.954176015952
 24
105.0519325121552
 34
0.0
 50
90.0
100
AcDbRotatedDimension
  0
DIMENSION
  5
201
330
88
100
AcDbEntity
  8
1
100
AcDbDimension
  2
*D15
 10
-952.0515580339082
 20
24.976383808222
 30
0.0
 11
-1015.501558034011
 21
30.826383808222
 31
0.0
 70
    32
  1
<>
 71
     5
 42
-1.0
 53
0.00013888888889
  3
ME10_DIM_11
100
AcDbAlignedDimension
 13
-1067.951558034036
 23
67.02314560480656
 33
0.0
 14
-952.0515580339079
 24
136.5848477129381
 34
0.0
100
AcDbRotatedDimension
  0
DIMENSION
  5
20C
330
88
100
AcDbEntity
  8
1
100
AcDbDimension
  2
*D16
 10
-963.051558033986
 20
40.8713477821248
 30
0.0
 11
-1015.501558034011
 21
46.7213477821248
 31
0.0
 70
    32
  1
<>
 71
     5
 42
-1.0
 53
0.00013888888889
  3
ME10_DIM_12
100
AcDbAlignedDimension
 13
-1067.951558034036
 23
75.52314560480656
 33
0.0
 14
-963.0515580339857
 24
105.6064423906456
 34
0.0
100
AcDbRotatedDimension
  0
DIMENSION
  5
217
330
88
100
AcDbEntity
  8
1
100
AcDbDimension
  2
*D17
 10
-1067.951558034036
 20
40.8713477821248
 30
0.0
 11
-1103.51875181896
 21
46.7213477821248
 31
0.0
 70
    32
  1
<>
 71
     5
 42
-1.0
 53
0.00013888888889
  3
ME10_DIM_13
100
AcDbAlignedDimension
 13
-1141.355537633784
 23
176.0493421955852
 33
0.0
 14
-1067.951558034036
 24
67.02314560480656
 34
0.0
100
AcDbRotatedDimension
  0
ENDBLK
  5
8B
330
88
100
AcDbEntity
  8
0
100
AcDbBlockEnd
  0
BLOCK
  5
8D
330
8C
100
AcDbEntity
  8
0
100
AcDbBlockBegin
  2
0059_1502_0000__4
 70
     0
 10
-855.7551057675435
 20
62.001020912987
 30
0.0
  3
0059_1502_0000__4
  1

  0
LINE
  5
218
330
8C
100
AcDbEntity
  8
0
  6
Continuous
 62
     3
100
AcDbLine
 10
-668.6091184642053
 20
84.47752202807598
 30
0.0
 11
-670.5718510658894
 21
84.4775215974856
 31
0.0
  0
LINE
  5
219
330
8C
100
AcDbEntity
  8
0
  6
Continuous
 62
     3
100
AcDbLine
 10
-851.777260518871
 20
289.9981680440321
 30
0.0
 11
-851.645123895572
 21
289.8660562709951
 31
0.0
  0
LINE
  5
21A
330
8C
100
AcDbEntity
  8
0
  6
Continuous
 62
     3
100
AcDbLine
 10
-855.7543831402832
 20
286.0210388688555
 30
0.0
 11
-855.6222712906657
 21
285.8889026549979
 31
0.0
  0
LINE
  5
21B
330
8C
100
AcDbEntity
  8
0
  6
Continuous
 62
     3
100
AcDbLine
 10
-631.7345524023854
 20
289.9981672802601
 30
0.0
 11
-631.8666886006213
 21
289.8660558960133
 31
0.0
  0
LINE
  5
21C
330
8C
100
AcDbEntity
  8
0
  6
Continuous
 62
     3
100
AcDbLine
 10
-681.1073187568702
 20
85.8468828957223
 30
0.0
 11
-682.9251899388469
 21
87.6488599920485
 31
0.0
  0
LINE
  5
21D
330
8C
100
AcDbEntity
  8
0
  6
Continuous
 62
     3
100
AcDbLine
 10
-679.4204314872075
 20
87.6432706966792
 30
0.0
 11
-681.1073187568702
 21
85.8468828957223
 31
0.0
  0
LINE
  5
21E
330
8C
100
AcDbEntity
  8
0
  6
Continuous
 62
     3
100
AcDbLine
 10
-682.9458017870891
 20
90.19399199455148
 30
0.0
 11
-681.1071874935074
 21
88.20210068957209
 31
0.0
  0
LINE
  5
21F
330
8C
100
AcDbEntity
  8
0
  6
Continuous
 62
     3
100
AcDbLine
 10
-681.1071874935074
 20
88.20210068957209
 30
0.0
 11
-679.3998749699222
 21
90.19399149928509
 31
0.0
  0
LINE
  5
220
330
8C
100
AcDbEntity
  8
0
  6
Continuous
 62
     3
100
AcDbLine
 10
-679.3998749699222
 20
90.19399149928509
 30
0.0
 11
-677.5003282827809
 21
90.19399116271529
 31
0.0
  0
LINE
  5
221
330
8C
100
AcDbEntity
  8
0
  6
Continuous
 62
     3
100
AcDbLine
 10
-673.5423817097749
 20
86.40277750380159
 30
0.0
 11
-672.6083783270386
 21
88.15418724479659
 31
0.0
  0
LINE
  5
222
330
8C
100
AcDbEntity
  8
0
  6
Continuous
 62
     3
100
AcDbLine
 10
-673.4390980938233
 20
90.192988546398
 30
0.0
 11
-671.6907249325465
 21
90.1929881978831
 31
0.0
  0
LINE
  5
223
330
8C
100
AcDbEntity
  8
0
  6
Continuous
 62
     3
100
AcDbLine
 10
-674.643014575697
 20
84.4770584268187
 30
0.0
 11
-676.6391892996012
 21
84.4770580660875
 31
0.0
  0
LINE
  5
224
330
8C
100
AcDbEntity
  8
0
  6
Continuous
 62
     3
100
AcDbLine
 10
-674.2543137126615
 20
85.1266097839235
 30
0.0
 11
-674.643014575697
 21
84.4770584268187
 31
0.0
  0
LINE
  5
225
330
8C
100
AcDbEntity
  8
0
  6
Continuous
 62
     3
100
AcDbLine
 10
-677.5003301480676
 20
84.4775203165809
 30
0.0
 11
-679.4204303751742
 21
84.4775199804935
 31
0.0
  0
LINE
  5
226
330
8C
100
AcDbEntity
  8
0
  6
Continuous
 62
     3
100
AcDbLine
 10
-682.9470970888553
 20
84.4994024382986
 30
0.0
 11
-684.7798308759764
 21
84.4994021597517
 31
0.0
  0
LINE
  5
227
330
8C
100
AcDbEntity
  8
0
  6
Continuous
 62
     3
100
AcDbLine
 10
-684.7798327276417
 20
90.1939922660269
 30
0.0
 11
-682.9458017870891
 21
90.19399199455148
 31
0.0
  0
LINE
  5
228
330
8C
100
AcDbEntity
  8
0
  6
Continuous
 62
     3
100
AcDbLine
 10
-627.7574303925035
 20
65.9789683341111
 30
0.0
 11
-627.8895418973236
 21
66.11110422054449
 31
0.0
  0
LINE
  5
229
330
8C
100
AcDbEntity
  8
0
  6
Continuous
 62
     3
100
AcDbLine
 10
-855.7543834395217
 20
65.97896692631619
 30
0.0
 11
-855.6222716793616
 21
66.1111030303723
 31
0.0
  0
LINE
  5
22A
330
8C
100
AcDbEntity
  8
0
  6
Continuous
 62
     3
100
AcDbLine
 10
-631.7345536989162
 20
62.00183803975259
 30
0.0
 11
-631.866689645223
 21
62.1339491534192
 31
0.0
  0
LINE
  5
22B
330
8C
100
AcDbEntity
  8
0
  6
Continuous
 62
     3
100
AcDbLine
 10
-627.7574298028611
 20
286.0210369678679
 30
0.0
 11
-627.8895414019689
 21
285.8889009683592
 31
0.0
  0
LINE
  5
22C
330
8C
100
AcDbEntity
  8
0
  6
Continuous
 62
     3
100
AcDbLine
 10
-851.7772601278878
 20
62.0018377370414
 30
0.0
 11
-851.6451237593493
 21
62.13394923510148
 31
0.0
  0
LINE
  5
22D
330
8C
100
AcDbEntity
  8
0
  6
Continuous
 62
     3
100
AcDbLine
 10
-672.6083783270386
 20
88.15418724479659
 30
0.0
 11
-671.6547702545977
 21
86.402777127321
 31
0.0
  0
LINE
  5
22E
330
8C
100
AcDbEntity
  8
0
  6
Continuous
 62
     3
100
AcDbLine
 10
-671.6547702545977
 20
86.402777127321
 30
0.0
 11
-673.5423817097749
 21
86.40277750380159
 31
0.0
  0
LINE
  5
22F
330
8C
100
AcDbEntity
  8
0
  6
Continuous
 62
     3
100
AcDbLine
 10
-670.5718510658894
 20
84.4775215974856
 30
0.0
 11
-670.9621651077657
 21
85.126442415842
 31
0.0
  0
LINE
  5
230
330
8C
100
AcDbEntity
  8
0
  6
Continuous
 62
     3
100
AcDbLine
 10
-667.790120778098
 20
90.1929876065804
 30
0.0
 11
-665.8482081287507
 21
90.19298717171648
 31
0.0
  0
LINE
  5
231
330
8C
100
AcDbEntity
  8
0
  6
Continuous
 62
     3
100
AcDbLine
 10
-665.8482100015875
 20
84.47752266311409
 30
0.0
 11
-667.7901189093762
 21
84.47752222602318
 31
0.0
  0
LINE
  5
232
330
8C
100
AcDbEntity
  8
0
  6
Continuous
 62
     3
100
AcDbLine
 10
-658.6579396894338
 20
88.9935893515158
 30
0.0
 11
-660.2661857285946
 21
88.05923006184679
 31
0.0
  0
LINE
  5
233
330
8C
100
AcDbEntity
  8
0
  6
Continuous
 62
     3
100
AcDbLine
 10
-660.2717586970455
 20
86.7663645688902
 30
0.0
 11
-658.657062517256
 21
85.83981912232218
 31
0.0
  0
ARC
  5
234
330
8C
100
AcDbEntity
  8
0
  6
Continuous
 62
     3
100
AcDbCircle
 10
-661.4182017504388
 20
87.41593639093719
 30
0.0
 40
3.179313685285912
100
AcDbArc
 50
29.75051975445195
 51
330.2813521060399
  0
ARC
  5
235
330
8C
100
AcDbEntity
  8
0
  6
Continuous
 62
     3
100
AcDbCircle
 10
-661.4198536809145
 20
87.41775825380128
 30
0.0
 40
1.320013569902654
100
AcDbArc
 50
29.07528950622206
 51
330.4307602790252
  0
CIRCLE
  5
236
330
8C
100
AcDbEntity
  8
0
  6
Continuous
 62
     3
100
AcDbCircle
 10
-654.7086037363124
 20
87.4172738879885
 30
0.0
 40
3.147393784962752
  0
CIRCLE
  5
237
330
8C
100
AcDbEntity
  8
0
  6
Continuous
 62
     3
100
AcDbCircle
 10
-654.7086037363124
 20
87.4172738879885
 30
0.0
 40
1.352333736097682
  0
SPLINE
  5
238
330
8C
100
AcDbEntity
  8
0
  6
Continuous
 62
     3
100
AcDbSpline
210
0.0
220
0.0
230
1.0
 70
     8
 71
     3
 72
    19
 73
    15
 74
    13
 42
0.0000000001
 43
0.0000000001
 44
0.00000001
 40
0.0
 40
0.0
 40
0.0
 40
0.0
 40
0.1598810960885129
 40
0.3184438572366452
 40
0.4196140493566841
 40
0.514363809899612
 40
0.6005059073808153
 40
0.6761557355785944
 40
0.7398867371973971
 40
0.7910532020749362
 40
0.8294456814600087
 40
0.8563245511055041
 40
0.866353204466372
 40
0.8747302535392896
 40
0.8747302535392896
 40
0.8747302535392896
 40
0.8747302535392896
 10
-628.7426924973329
 20
65.9913087600309
 30
0.0
 10
-628.6894055851243
 20
65.99225665289966
 30
0.0
 10
-628.5832711497278
 20
65.99414462257685
 30
0.0
 10
-628.4435192520548
 20
66.0004153331337
 30
0.0
 10
-628.3256187758457
 20
66.00835370348538
 30
0.0
 10
-628.2319662259185
 20
66.01677100778709
 30
0.0
 10
-628.1470181030245
 20
66.02670851386378
 30
0.0
 10
-628.0726956723817
 20
66.03813233658332
 30
0.0
 10
-628.0104078374142
 20
66.05071472014059
 30
0.0
 10
-627.9610481248089
 20
66.0641381460473
 30
0.0
 10
-627.9247520200258
 20
66.07817453558806
 30
0.0
 10
-627.9031321205346
 20
66.09137665409916
 30
0.0
 10
-627.8926958993143
 20
66.10267483732774
 30
0.0
 10
-627.890528399007
 20
66.10846769692803
 30
0.0
 10
-627.8895418973236
 20
66.11110422054449
 30
0.0
 11
-628.7426924973329
 21
65.9913087600309
 31
0.0
 11
-628.5828512044136
 21
65.99487610699421
 31
0.0
 11
-628.4244482937571
 21
66.0019941908987
 31
0.0
 11
-628.3235131523167
 21
66.00888657771316
 31
0.0
 11
-628.229152916972
 21
66.01746929923048
 31
0.0
 11
-628.143615916353
 21
66.02766157491229
 31
0.0
 11
-628.0688772522547
 21
66.03936749628318
 31
0.0
 11
-628.0064733770702
 21
66.05230569280722
 31
0.0
 11
-627.9572354188524
 21
66.06622081402878
 31
0.0
 11
-627.9217186057083
 21
66.08079951278482
 31
0.0
 11
-627.8994032374505
 21
66.09578276920459
 31
0.0
 11
-627.8929310763478
 21
66.10344338399018
 31
0.0
 11
-627.8895418973236
 21
66.11110422054449
 31
0.0
  0
SPLINE
  5
239
330
8C
100
AcDbEntity
  8
0
  6
Continuous
 62
     3
100
AcDbSpline
210
0.0
220
0.0
230
1.0
 70
     8
 71
     3
 72
    11
 73
     7
 74
     5
 42
0.0000000001
 43
0.0000000001
 44
0.00000001
 40
0.0
 40
0.0
 40
0.0
 40
0.0
 40
49.55496815151177
 40
110.0089904009197
 40
170.6609995620807
 40
220.0180466643815
 40
220.0180466643815
 40
220.0180466643815
 40
220.0180466643815
 10
-851.7649242321728
 20
289.0129114726765
 30
0.0
 10
-835.2466015207729
 20
289.0133189979259
 30
0.0
 10
-798.57693806661
 20
289.0142236789889
 30
0.0
 10
-741.6899382190375
 20
289.0157733046148
 30
0.0
 10
-684.8689120544991
 20
289.0142228110989
 30
0.0
 10
-648.1992266463008
 20
289.0133124693148
 30
0.0
 10
-631.7468776180133
 20
289.0129040321929
 30
0.0
 11
-851.7649242321728
 21
289.0129114726765
 31
0.0
 11
-802.2099560962175
 21
289.0141531664114
 31
0.0
 11
-741.7559338562759
 21
289.0152230015356
 31
0.0
 11
-681.1039247046501
 21
289.0141475159502
 31
0.0
 11
-631.7468776180133
 21
289.0129040321929
 31
0.0
  0
SPLINE
  5
23A
330
8C
100
AcDbEntity
  8
0
  6
Continuous
 62
     3
100
AcDbSpline
210
0.0
220
0.0
230
1.0
 70
     8
 71
     3
 72
    19
 73
    15
 74
    13
 42
0.0000000001
 43
0.0000000001
 44
0.00000001
 40
0.0
 40
0.0
 40
0.0
 40
0.0
 40
0.0083771381321294
 40
0.0184058071067622
 40
0.0452849691230654
 40
0.0836778091040989
 40
0.1348444456477774
 40
0.1985756145984438
 40
0.2742256140714844
 40
0.3603678972689874
 40
0.4551178720656571
 40
0.5562883120166396
 40
0.7148515325912261
 40
0.8747331995679314
 40
0.8747331995679314
 40
0.8747331995679314
 40
0.8747331995679314
 10
-631.8666886006213
 20
289.8660558960133
 30
0.0
 10
-631.8640520422019
 20
289.8650694043835
 30
0.0
 10
-631.8582591347763
 20
289.8629019368827
 30
0.0
 10
-631.8469606999543
 20
289.8524658030345
 30
0.0
 10
-631.8337582159081
 20
289.8308458401021
 30
0.0
 10
-631.8197214066914
 20
289.7945496076694
 30
0.0
 10
-631.8062974716091
 20
289.7451897904584
 30
0.0
 10
-631.7937144237085
 20
289.6829019185616
 30
0.0
 10
-631.7822897034418
 20
289.6085794506566
 30
0.0
 10
-631.7723510094412
 20
289.5236312769355
 30
0.0
 10
-631.7639321968486
 20
289.4299786476894
 30
0.0
 10
-631.7559916333562
 20
289.3120780126114
 30
0.0
 10
-631.749717889216
 20
289.1723258326595
 30
0.0
 10
-631.7478269846963
 20
289.0661911076641
 30
0.0
 10
-631.7468776180133
 20
289.0129040321929
 30
0.0
 11
-631.8666886006213
 21
289.8660558960133
 31
0.0
 11
-631.8590276537727
 21
289.8626667461688
 31
0.0
 11
-631.8513669400018
 21
289.8561946780355
 31
0.0
 11
-631.8363832562155
 21
289.8338792445668
 31
0.0
 11
-631.8218040911806
 21
289.7983622330274
 31
0.0
 11
-631.807888473621
 21
289.749124236692
 31
0.0
 11
-631.7949496082829
 21
289.6867203292856
 31
0.0
 11
-631.783242782592
 21
289.611981633468
 31
0.0
 11
-631.7730493117394
 21
289.5264445882393
 31
0.0
 11
-631.7644650677685
 21
289.4320842762463
 31
0.0
 11
-631.7575708066529
 21
289.3311490144022
 31
0.0
 11
-631.7504492276537
 21
289.1727458009514
 31
0.0
 11
-631.7468776180133
 21
289.0129040321929
 31
0.0
  0
SPLINE
  5
23B
330
8C
100
AcDbEntity
  8
0
  6
Continuous
 62
     3
100
AcDbSpline
210
0.0
220
0.0
230
1.0
 70
     8
 71
     3
 72
    11
 73
     7
 74
     5
 42
0.0000000001
 43
0.0000000001
 44
0.00000001
 40
0.0
 40
0.0
 40
0.0
 40
0.0
 40
53.7239202429157
 40
109.8891938591708
 40
166.0782774814353
 40
219.7784353427433
 40
219.7784353427433
 40
219.7784353427433
 40
219.7784353427433
 10
-851.645123895572
 20
289.8660562709951
 30
0.0
 10
-833.7371504871656
 20
289.8664832285939
 30
0.0
 10
-797.107419212841
 20
289.867356545845
 30
0.0
 10
-741.7479933916229
 20
289.8688029392704
 30
0.0
 10
-686.3964883642861
 20
289.8673559971419
 30
0.0
 10
-649.7667412151609
 20
289.8664826696069
 30
0.0
 10
-631.8666886006213
 20
289.8660558960133
 30
0.0
 11
-851.645123895572
 21
289.8660562709951
 31
0.0
 11
-797.9212036684063
 21
289.8673571540089
 31
0.0
 11
-741.7559300602942
 21
289.8683135584439
 31
0.0
 11
-685.5668464461834
 21
289.8673563263574
 31
0.0
 11
-631.8666886006213
 21
289.8660558960133
 31
0.0
  0
SPLINE
  5
23C
330
8C
100
AcDbEntity
  8
0
  6
Continuous
 62
     3
100
AcDbSpline
210
0.0
220
0.0
230
1.0
 70
     8
 71
     3
 72
    15
 73
    11
 74
     9
 42
0.0000000001
 43
0.0000000001
 44
0.00000001
 40
0.0
 40
0.0
 40
0.0
 40
0.0
 40
0.998178880562672
 40
1.552513886245393
 40
2.33387266130871
 40
3.117556726392278
 40
4.041336656681354
 40
4.682346113936214
 40
5.53480266314021
 40
6.23588171656228
 40
6.23588171656228
 40
6.23588171656228
 40
6.23588171656228
 10
-851.645123895572
 20
289.8660562709951
 30
0.0
 10
-851.9788616416985
 20
289.8421291413445
 30
0.0
 10
-852.497939429573
 20
289.8049141673915
 30
0.0
 10
-853.2381813408407
 20
289.5517220594331
 30
0.0
 10
-853.8661832267372
 20
289.2196083454855
 30
0.0
 10
-854.5119118021552
 20
288.6902373296242
 30
0.0
 10
-855.0024460795706
 20
288.0698765590224
 30
0.0
 10
-855.3680280132071
 20
287.3494273058238
 30
0.0
 10
-855.5820662338417
 20
286.6411142919522
 30
0.0
 10
-855.609769410087
 20
286.1228050741959
 30
0.0
 10
-855.6222712906657
 20
285.8889026549979
 30
0.0
 11
-851.645123895572
 21
289.8660562709951
 31
0.0
 11
-852.6353157080441
 21
289.7400354309938
 31
0.0
 11
-853.1613767062571
 21
289.5652580735231
 31
0.0
 11
-853.8511140501445
 21
289.1981287614059
 31
0.0
 11
-854.4573713381626
 21
288.7015274982271
 31
0.0
 11
-855.0300779124634
 21
287.9766988706485
 31
0.0
 11
-855.3212726760544
 21
287.405648317766
 31
0.0
 11
-855.5595500743091
 21
286.5871704318328
 31
0.0
 11
-855.6222712906657
 21
285.8889026549979
 31
0.0
  0
SPLINE
  5
23D
330
8C
100
AcDbEntity
  8
0
  6
Continuous
 62
     3
100
AcDbSpline
210
0.0
220
0.0
230
1.0
 70
     8
 71
     3
 72
    19
 73
    15
 74
    13
 42
0.0000000001
 43
0.0000000001
 44
0.00000001
 40
0.0
 40
0.0
 40
0.0
 40
0.0
 40
0.159881427581121
 40
0.3184443684491014
 40
0.4196146165305215
 40
0.5143644102583782
 40
0.6005065389076887
 40
0.6761564265971979
 40
0.7398875404464751
 40
0.7910542038701182
 40
0.8294472443208171
 40
0.8563267176675832
 40
0.866355563295538
 40
0.8747329561584457
 40
0.8747329561584457
 40
0.8747329561584457
 40
0.8747329561584457
 10
-854.7691214623466
 20
286.0087210743602
 30
0.0
 10
-854.8224084521084
 20
286.0077713794598
 30
0.0
 10
-854.9285429922986
 20
286.0058798214636
 30
0.0
 10
-855.0682948979252
 20
285.9996052528476
 30
0.0
 10
-855.1861952669664
 20
285.9916639735064
 30
0.0
 10
-855.279847666303
 20
285.9832445634893
 30
0.0
 10
-855.3647956214427
 20
285.9733052796483
 30
0.0
 10
-855.439117891967
 20
285.961879971257
 30
0.0
 10
-855.5014055987451
 20
285.9492963352314
 30
0.0
 10
-855.5507653176153
 20
285.9358717976116
 30
0.0
 10
-855.5870615039923
 20
285.9218343643182
 30
0.0
 10
-855.6086814026256
 20
285.9086312800138
 30
0.0
 10
-855.6191173982019
 20
285.897332388285
 30
0.0
 10
-855.6212848151627
 20
285.8915393096974
 30
0.0
 10
-855.6222712906657
 20
285.8889026549979
 30
0.0
 11
-854.7691214623466
 21
286.0087210743602
 31
0.0
 11
-854.9289629697954
 21
286.0051484868025
 31
0.0
 11
-855.0873658606897
 21
285.9980259610546
 31
0.0
 11
-855.1883008881729
 21
285.9911310844183
 31
0.0
 11
-855.2826609632284
 21
285.9825462345661
 31
0.0
 11
-855.368197781347
 21
285.9723521640161
 31
0.0
 11
-855.442936270302
 21
285.9606447400396
 31
0.0
 11
-855.5053399972396
 21
285.9477052757245
 31
0.0
 11
-855.5545778503199
 21
285.9337890524598
 31
0.0
 11
-855.5900948142324
 21
285.9192092434938
 31
0.0
 11
-855.6124101809866
 21
285.9042249018657
 31
0.0
 11
-855.6188821782009
 21
285.896563896926
 31
0.0
 11
-855.6222712906657
 21
285.8889026549979
 31
0.0
  0
SPLINE
  5
23E
330
8C
100
AcDbEntity
  8
0
  6
Continuous
 62
     3
100
AcDbSpline
210
0.0
220
0.0
230
1.0
 70
     8
 71
     3
 72
    15
 73
    11
 74
     9
 42
0.0000000001
 43
0.0000000001
 44
0.00000001
 40
0.0
 40
0.0
 40
0.0
 40
0.0
 40
0.4353392294109675
 40
1.184542997673369
 40
1.668003365970943
 40
2.359923657063395
 40
2.948727995034379
 40
3.535486030379782
 40
4.284810068836829
 40
4.720411315362938
 40
4.720411315362938
 40
4.720411315362938
 40
4.720411315362938
 10
-851.7649242321728
 20
289.0129114726765
 30
0.0
 10
-851.9101463908546
 20
289.0076393810911
 30
0.0
 10
-852.3052908656732
 20
288.9932942020936
 30
0.0
 10
-852.8484964801198
 20
288.8398636962561
 30
0.0
 10
-853.4222750456888
 20
288.5493343965384
 30
0.0
 10
-853.888347407398
 20
288.1808843064954
 30
0.0
 10
-854.285509423978
 20
287.6961689349012
 30
0.0
 10
-854.5867240385176
 20
287.1260683764642
 30
0.0
 10
-854.749470993888
 20
286.5493329895176
 30
0.0
 10
-854.7638393713785
 20
286.1540387964404
 30
0.0
 10
-854.7691214623466
 20
286.0087210743602
 30
0.0
 11
-851.7649242321728
 21
289.0129114726765
 31
0.0
 11
-852.1993232773239
 21
288.9843157695729
 31
0.0
 11
-852.9225025165738
 21
288.7885657394414
 31
0.0
 11
-853.3533763134366
 21
288.5692903443523
 31
0.0
 11
-853.8963327516072
 21
288.1403940917755
 31
0.0
 11
-854.2693739407564
 21
287.6848385851557
 31
0.0
 11
-854.5446324528679
 21
287.1666516077502
 31
0.0
 11
-854.7405069411176
 21
286.4433814649526
 31
0.0
 11
-854.7691214623466
 21
286.0087210743602
 31
0.0
  0
SPLINE
  5
23F
330
8C
100
AcDbEntity
  8
0
  6
Continuous
 62
     3
100
AcDbSpline
210
0.0
220
0.0
230
1.0
 70
     8
 71
     3
 72
    19
 73
    15
 74
    13
 42
0.0000000001
 43
0.0000000001
 44
0.00000001
 40
0.0
 40
0.0
 40
0.0
 40
0.0
 40
0.1598803284625528
 40
0.318442179022519
 40
0.4196117175218779
 40
0.5143608224200381
 40
0.6005022898924979
 40
0.6761515484160343
 40
0.7398820695569379
 40
0.7910481788384912
 40
0.8294401918871958
 40
0.8563190115607084
 40
0.8663480411513061
 40
0.8747255095939261
 40
0.8747255095939261
 40
0.8747255095939261
 40
0.8747255095939261
 10
-851.7649242321728
 20
289.0129114726765
 30
0.0
 10
-851.763975713684
 20
289.0661981171505
 30
0.0
 10
-851.762086498811
 20
289.1723319695278
 30
0.0
 10
-851.7558148412866
 20
289.3120830402654
 30
0.0
 10
-851.7478759537653
 20
289.4299827391828
 30
0.0
 10
-851.7394584095099
 20
289.523634617237
 30
0.0
 10
-851.7295208010552
 20
289.6085821045928
 30
0.0
 10
-851.7180969585224
 20
289.682903965049
 30
0.0
 10
-851.7055145690366
 20
289.7451913212577
 30
0.0
 10
-851.6920911101295
 20
289.7945505774484
 30
0.0
 10
-851.6780546028501
 20
289.830846331689
 30
0.0
 10
-851.6648522510369
 20
289.8524660478203
 30
0.0
 10
-851.6535537135853
 20
289.862902264847
 30
0.0
 10
-851.6477605675694
 20
289.8650697633769
 30
0.0
 10
-851.645123895572
 20
289.8660562709951
 30
0.0
 11
-851.7649242321728
 21
289.0129114726765
 31
0.0
 11
-851.7613551400549
 21
289.1727519588205
 31
0.0
 11
-851.7542359287066
 21
289.3311539073021
 31
0.0
 11
-851.7473431000351
 21
289.4320883634263
 31
0.0
 11
-851.7387601314085
 21
289.5264479179428
 31
0.0
 11
-851.7285677489738
 21
289.6119842713758
 31
0.0
 11
-851.7168618003707
 21
289.6867223545895
 31
0.0
 11
-851.7039235884531
 21
289.7491257358863
 31
0.0
 11
-851.6900083968449
 21
289.7983633046881
 31
0.0
 11
-851.6754296399646
 21
289.833879589879
 31
0.0
 11
-851.6604461655172
 21
289.8561947515527
 31
0.0
 11
-851.6527851698175
 21
289.8626670447645
 31
0.0
 11
-851.645123895572
 21
289.8660562709951
 31
0.0
  0
SPLINE
  5
240
330
8C
100
AcDbEntity
  8
0
  6
Continuous
 62
     1
100
AcDbSpline
210
0.0
220
0.0
230
1.0
 70
     8
 71
     3
 72
    11
 73
     7
 74
     5
 42
0.0000000001
 43
0.0000000001
 44
0.00000001
 40
0.0
 40
0.0
 40
0.0
 40
0.0
 40
49.89652663216346
 40
109.9466853448879
 40
170.0903442228636
 40
220.0427081229756
 40
220.0427081229756
 40
220.0427081229756
 40
220.0427081229756
 10
-851.777260518871
 20
289.9981680440321
 30
0.0
 10
-835.1450849749341
 20
289.9982173276629
 30
0.0
 10
-798.4961898602303
 20
289.998325923836
 30
0.0
 10
-741.7994084554856
 20
289.9993430484889
 30
0.0
 10
-685.0840146280639
 20
289.9983268173327
 30
0.0
 10
-648.3853403689682
 20
289.9982170730387
 30
0.0
 10
-631.7345524023854
 20
289.9981672802601
 30
0.0
 11
-851.777260518871
 21
289.9981680440321
 31
0.0
 11
-801.8807338873896
 21
289.9984289395014
 31
0.0
 11
-741.8305751772294
 21
289.9989838906967
 31
0.0
 11
-681.6869163018094
 21
289.9984294331617
 31
0.0
 11
-631.7345524023854
 21
289.9981672802601
 31
0.0
  0
SPLINE
  5
241
330
8C
100
AcDbEntity
  8
0
  6
Continuous
 62
     1
100
AcDbSpline
210
0.0
220
0.0
230
1.0
 70
     8
 71
     3
 72
    11
 73
     7
 74
     5
 42
0.0000000001
 43
0.0000000001
 44
0.00000001
 40
0.0
 40
0.0
 40
0.0
 40
0.0
 40
49.89588352395699
 40
109.9467024849487
 40
170.090463238953
 40
220.0427064354548
 40
220.0427064354548
 40
220.0427064354548
 40
220.0427064354548
 10
-631.7345536989162
 20
62.00183803975259
 30
0.0
 10
-648.3665148734511
 20
62.00178875706978
 30
0.0
 10
-685.0154157015086
 20
62.00168016156884
 30
0.0
 10
-741.7122367782819
 20
62.00066307128564
 30
0.0
 10
-798.4278444126022
 20
62.00167909478019
 30
0.0
 10
-835.1265123958401
 20
62.00178822361682
 30
0.0
 10
-851.7772601278878
 20
62.0018377370414
 30
0.0
 11
-631.7345536989162
 21
62.00183803975259
 31
0.0
 11
-681.6304372221912
 21
62.00157715458717
 31
0.0
 11
-741.6812561806184
 21
62.00102218785068
 31
0.0
 11
-801.82501693207
 21
62.00157632420682
 31
0.0
 11
-851.7772601278878
 21
62.0018377370414
 31
0.0
  0
SPLINE
  5
242
330
8C
100
AcDbEntity
  8
0
  6
Continuous
 62
     3
100
AcDbSpline
210
0.0
220
0.0
230
1.0
 70
     8
 71
     3
 72
    11
 73
     7
 74
     5
 42
0.0000000001
 43
0.0000000001
 44
0.00000001
 40
0.0
 40
0.0
 40
0.0
 40
0.0
 40
53.7239855635932
 40
109.8892438952883
 40
166.0778461166232
 40
219.7784341618952
 40
219.7784341618952
 40
219.7784341618952
 40
219.7784341618952
 10
-631.866689645223
 20
62.1339491534192
 30
0.0
 10
-649.7746848271917
 20
62.13352231627186
 30
0.0
 10
-686.4044327802285
 20
62.13264924606132
 30
0.0
 10
-741.7637148131745
 20
62.13120291332594
 30
0.0
 10
-797.1151976733385
 20
62.13264966205902
 30
0.0
 10
-833.7449277501505
 20
62.13352263242918
 30
0.0
 10
-851.6451237593493
 20
62.13394923510148
 30
0.0
 11
-631.866689645223
 21
62.1339491534192
 31
0.0
 11
-685.5906751930738
 21
62.13264858158274
 31
0.0
 11
-741.7559335166271
 21
62.13169224975459
 31
0.0
 11
-797.9445357298121
 21
62.13264926246502
 31
0.0
 11
-851.6451237593493
 21
62.13394923510148
 31
0.0
  0
SPLINE
  5
243
330
8C
100
AcDbEntity
  8
0
  6
Continuous
 62
     1
100
AcDbSpline
210
0.0
220
0.0
230
1.0
 70
     8
 71
     3
 72
    15
 73
    11
 74
     9
 42
0.0000000001
 43
0.0000000001
 44
0.00000001
 40
0.0
 40
0.0
 40
0.0
 40
0.0
 40
0.9165317874682181
 40
1.557806806014904
 40
2.338827312140468
 40
3.119180976061728
 40
4.037793794151747
 40
4.681112738670631
 40
5.596537797585982
 40
6.239752784850459
 40
6.239752784850459
 40
6.239752784850459
 40
6.239752784850459
 10
-855.7543834395217
 20
65.97896692631619
 30
0.0
 10
-855.7345539711567
 20
65.67267223746782
 30
0.0
 10
-855.7008503056636
 20
65.15207059826852
 30
0.0
 10
-855.4542962187502
 20
64.40666969157283
 30
0.0
 10
-855.109472905589
 20
63.75393221005603
 30
0.0
 10
-854.5817955812419
 20
63.11062140618801
 30
0.0
 10
-853.9634650209653
 20
62.62094659760352
 30
0.0
 10
-853.2251152795866
 20
62.24628719292866
 30
0.0
 10
-852.511771221907
 20
62.03652964125067
 30
0.0
 10
-851.9918285426152
 20
62.01197207939602
 30
0.0
 10
-851.7772601278878
 20
62.0018377370414
 30
0.0
 11
-855.7543834395217
 21
65.97896692631619
 31
0.0
 11
-855.6497162284103
 21
65.06843120908273
 31
0.0
 11
-855.4542440320063
 21
64.4576740807207
 31
0.0
 11
-855.0874027446259
 21
63.76816664721343
 31
0.0
 11
-854.5928579948542
 21
63.1645298928085
 31
0.0
 11
-853.8723936404269
 21
62.5946346186054
 31
0.0
 11
-853.2993317591186
 21
62.30230031584878
 31
0.0
 11
-852.4184095639276
 21
62.05334424641045
 31
0.0
 11
-851.7772601278878
 21
62.0018377370414
 31
0.0
  0
SPLINE
  5
244
330
8C
100
AcDbEntity
  8
0
  6
Continuous
 62
     3
100
AcDbSpline
210
0.0
220
0.0
230
1.0
 70
     8
 71
     3
 72
    11
 73
     7
 74
     5
 42
0.0000000001
 43
0.0000000001
 44
0.00000001
 40
0.0
 40
0.0
 40
0.0
 40
0.0
 40
53.76939985508298
 40
109.8889191408416
 40
166.0232504418296
 40
219.7777996683012
 40
219.7777996683012
 40
219.7777996683012
 40
219.7777996683012
 10
-855.6222716793616
 20
66.1111030303723
 30
0.0
 10
-855.6226726226755
 20
84.034236310144
 30
0.0
 10
-855.623492033484
 20
120.6638760130162
 30
0.0
 10
-855.6249159162353
 20
176.0049594877909
 30
0.0
 10
-855.6234915049077
 20
231.3410927530159
 30
0.0
 10
-855.622672113764
 20
267.9707195847615
 30
0.0
 10
-855.6222712906657
 20
285.8889026549979
 30
0.0
 11
-855.6222716793616
 21
66.1111030303723
 31
0.0
 11
-855.6235039679598
 21
119.8805028713345
 31
0.0
 11
-855.6244344380884
 21
176.0000221493794
 31
0.0
 11
-855.623503310893
 21
232.1343534426449
 31
0.0
 11
-855.6222712906657
 21
285.8889026549979
 31
0.0
  0
SPLINE
  5
245
330
8C
100
AcDbEntity
  8
0
  6
Continuous
 62
     3
100
AcDbSpline
210
0.0
220
0.0
230
1.0
 70
     8
 71
     3
 72
    19
 73
    15
 74
    13
 42
0.0000000001
 43
0.0000000001
 44
0.00000001
 40
0.0
 40
0.0
 40
0.0
 40
0.0
 40
0.1598814636976199
 40
0.3184444507585757
 40
0.4196147164871913
 40
0.5143645064369782
 40
0.6005065932877145
 40
0.6761563913169777
 40
0.7398873601487418
 40
0.7910538050040772
 40
0.8294461490470801
 40
0.8563250927054333
 40
0.8663540210459326
 40
0.8747313891086264
 40
0.8747313891086264
 40
0.8747313891086264
 40
0.8747313891086264
 10
-854.7691218494956
 20
65.99128900484499
 30
0.0
 10
-854.8224088463653
 20
65.99223894559843
 30
0.0
 10
-854.9285434041703
 20
65.99413099333485
 30
0.0
 10
-855.0682953342117
 20
66.00040563258646
 30
0.0
 10
-855.1861957377037
 20
66.00834668118345
 30
0.0
 10
-855.2798481606344
 20
66.0167657052048
 30
0.0
 10
-855.3647961311132
 20
66.0267044544699
 30
0.0
 10
-855.4391184054484
 20
66.03812911234016
 30
0.0
 10
-855.5014061005479
 20
66.05071203478755
 30
0.0
 10
-855.550765654875
 20
66.06413580049706
 30
0.0
 10
-855.5870616325574
 20
66.07817244356099
 30
0.0
 10
-855.608681472483
 20
66.0913748162285
 30
0.0
 10
-855.6191176939269
 20
66.10267331282887
 30
0.0
 10
-855.6212851789189
 20
66.10846639166232
 30
0.0
 10
-855.6222716793616
 20
66.1111030303723
 30
0.0
 11
-854.7691218494956
 21
65.99128900484499
 31
0.0
 11
-854.9289633790414
 21
65.9948622200005
 31
0.0
 11
-855.0873663112549
 21
66.0019848551782
 31
0.0
 11
-855.1883013702447
 21
66.00887952952213
 31
0.0
 11
-855.2826614770263
 21
66.017463988952
 31
0.0
 11
-855.3681983178926
 21
66.02765751540798
 31
0.0
 11
-855.4429368192456
 21
66.03936428086146
 31
0.0
 11
-855.5053405477704
 21
66.05230302324374
 31
0.0
 11
-855.5545783826248
 21
66.0662185073528
 31
0.0
 11
-855.5900949584219
 21
66.0807974279151
 31
0.0
 11
-855.6124102401742
 21
66.0957809459434
 31
0.0
 11
-855.6188824804836
 21
66.1034418537901
 31
0.0
 11
-855.6222716793616
 21
66.1111030303723
 31
0.0
  0
SPLINE
  5
246
330
8C
100
AcDbEntity
  8
0
  6
Continuous
 62
     3
100
AcDbSpline
210
0.0
220
0.0
230
1.0
 70
     8
 71
     3
 72
     9
 73
     5
 74
     3
 42
0.0000000001
 43
0.0000000001
 44
0.00000001
 40
0.0
 40
0.0
 40
0.0
 40
0.0
 40
2.858853730760049
 40
5.716470846259471
 40
5.716470846259471
 40
5.716470846259471
 40
5.716470846259471
 10
-677.5003282827809
 20
90.19399116271529
 30
0.0
 10
-677.500338037201
 20
89.24103991915253
 30
0.0
 10
-677.5003575418217
 20
87.33554963711384
 30
0.0
 10
-677.5003392780021
 20
85.43005935506292
 30
0.0
 10
-677.5003301480676
 20
84.4775203165809
 30
0.0
 11
-677.5003282827809
 21
90.19399116271529
 31
0.0
 11
-677.5003480998454
 21
87.33513743202393
 31
0.0
 11
-677.5003301480676
 21
84.4775203165809
 31
0.0
  0
SPLINE
  5
247
330
8C
100
AcDbEntity
  8
0
  6
Continuous
 62
     3
100
AcDbSpline
210
0.0
220
0.0
230
1.0
 70
     8
 71
     3
 72
     9
 73
     5
 74
     3
 42
0.0000000001
 43
0.0000000001
 44
0.00000001
 40
0.0
 40
0.0
 40
0.0
 40
0.0
 40
1.582683119713978
 40
3.165750716207075
 40
3.165750716207075
 40
3.165750716207075
 40
3.165750716207075
 10
-679.4204303751742
 20
84.4775199804935
 30
0.0
 10
-679.4204276655469
 20
85.00508102039561
 30
0.0
 10
-679.4204222456342
 20
86.06033125912623
 30
0.0
 10
-679.4204284064336
 20
87.11558149785273
 30
0.0
 10
-679.4204314872075
 20
87.6432706966792
 30
0.0
 11
-679.4204303751742
 21
84.4775199804935
 31
0.0
 11
-679.4204251407673
 21
86.06020310019882
 31
0.0
 11
-679.4204314872075
 21
87.6432706966792
 31
0.0
  0
SPLINE
  5
248
330
8C
100
AcDbEntity
  8
0
  6
Continuous
 62
     3
100
AcDbSpline
210
0.0
220
0.0
230
1.0
 70
     8
 71
     3
 72
     9
 73
     5
 74
     3
 42
0.0000000001
 43
0.0000000001
 44
0.00000001
 40
0.0
 40
0.0
 40
0.0
 40
0.0
 40
3.274969732138671
 40
6.550759115052918
 40
6.550759115052918
 40
6.550759115052918
 40
6.550759115052918
 10
-676.6391892996012
 20
84.4770580660875
 30
0.0
 10
-676.1058967931044
 20
85.429587953038
 30
0.0
 10
-675.0391783090702
 20
87.3348861236035
 30
0.0
 10
-673.9725026541328
 20
89.24020827224493
 30
0.0
 10
-673.4390980938233
 20
90.192988546398
 30
0.0
 11
-676.6391892996012
 21
84.4770580660875
 31
0.0
 11
-675.0393224847053
 21
87.33465371995794
 31
0.0
 11
-673.4390980938233
 21
90.192988546398
 31
0.0
  0
SPLINE
  5
249
330
8C
100
AcDbEntity
  8
0
  6
Continuous
 62
     3
100
AcDbSpline
210
0.0
220
0.0
230
1.0
 70
     8
 71
     3
 72
     9
 73
     5
 74
     3
 42
0.0000000001
 43
0.0000000001
 44
0.00000001
 40
0.0
 40
0.0
 40
0.0
 40
0.0
 40
1.574956213119971
 40
3.149533744258852
 40
3.149533744258852
 40
3.149533744258852
 40
3.149533744258852
 10
-682.9251899388469
 20
87.6488599920485
 30
0.0
 10
-682.9288444354136
 20
87.12388730755488
 30
0.0
 10
-682.9361525498609
 20
86.07406816283631
 30
0.0
 10
-682.9434492016267
 20
85.02424893838509
 30
0.0
 10
-682.9470970888553
 20
84.4994024382986
 30
0.0
 11
-682.9251899388469
 21
87.6488599920485
 31
0.0
 11
-682.9361505621874
 21
86.0739419186297
 31
0.0
 11
-682.9470970888553
 21
84.4994024382986
 31
0.0
  0
SPLINE
  5
24A
330
8C
100
AcDbEntity
  8
0
  6
Continuous
 62
     3
100
AcDbSpline
210
0.0
220
0.0
230
1.0
 70
     8
 71
     3
 72
     9
 73
     5
 74
     3
 42
0.0000000001
 43
0.0000000001
 44
0.00000001
 40
0.0
 40
0.0
 40
0.0
 40
0.0
 40
2.84668280901308
 40
5.694590106398513
 40
5.694590106398513
 40
5.694590106398513
 40
5.694590106398513
 10
-684.7798308759764
 20
84.4994021597517
 30
0.0
 10
-684.7798218283556
 20
85.44829642940519
 30
0.0
 10
-684.7798037292223
 20
87.34649313150301
 30
0.0
 10
-684.7798230601163
 20
89.24468983358867
 30
0.0
 10
-684.7798327276417
 20
90.1939922660269
 30
0.0
 11
-684.7798308759764
 21
84.4994021597517
 31
0.0
 11
-684.7798130865972
 21
87.34608496870919
 31
0.0
 11
-684.7798327276417
 21
90.1939922660269
 31
0.0
  0
SPLINE
  5
24B
330
8C
100
AcDbEntity
  8
0
  6
Continuous
 62
     1
100
AcDbSpline
210
0.0
220
0.0
230
1.0
 70
     8
 71
     3
 72
    15
 73
    11
 74
     9
 42
0.0000000001
 43
0.0000000001
 44
0.00000001
 40
0.0
 40
0.0
 40
0.0
 40
0.0
 40
0.9170557821731797
 40
1.558645385065495
 40
2.477888447583724
 40
3.120579718516054
 40
4.038629115108705
 40
4.681714614490922
 40
5.596516543570169
 40
6.239515780267257
 40
6.239515780267257
 40
6.239515780267257
 40
6.239515780267257
 10
-851.777260518871
 20
289.9981680440321
 30
0.0
 10
-852.0837464884881
 20
289.9782873019234
 30
0.0
 10
-852.6046558501835
 20
289.9444976159066
 30
0.0
 10
-853.3941662318374
 20
289.6834504167393
 30
0.0
 10
-854.0430587502212
 20
289.3260110689168
 30
0.0
 10
-854.675163091841
 20
288.7882888481853
 30
0.0
 10
-855.1359495065487
 20
288.2062019264806
 30
0.0
 10
-855.5101539239561
 20
287.4682206874364
 30
0.0
 10
-855.71972415793
 20
286.7551963727575
 30
0.0
 10
-855.744256961111
 20
286.2355347922904
 30
0.0
 10
-855.7543831402832
 20
286.0210388688555
 30
0.0
 11
-851.777260518871
 21
289.9981680440321
 31
0.0
 11
-852.688309721221
 21
289.8933794066963
 31
0.0
 11
-853.2993325019611
 21
289.6977052388658
 31
0.0
 11
-854.103075561447
 21
289.2516055837257
 31
0.0
 11
-854.5928587104777
 21
288.8354751514593
 31
0.0
 11
-855.1621555659734
 21
288.115255889771
 31
0.0
 11
-855.4542442017157
 21
287.5423307739087
 31
0.0
 11
-855.7029122228348
 21
286.6619747182586
 31
0.0
 11
-855.7543831402832
 21
286.0210388688555
 31
0.0
  0
SPLINE
  5
24C
330
8C
100
AcDbEntity
  8
0
  6
Continuous
 62
     3
100
AcDbSpline
210
0.0
220
0.0
230
1.0
 70
     8
 71
     3
 72
    11
 73
     7
 74
     5
 42
0.0000000001
 43
0.0000000001
 44
0.00000001
 40
0.0
 40
0.0
 40
0.0
 40
0.0
 40
49.52654610771013
 40
110.0087353758991
 40
170.4971080758636
 40
220.0174321156834
 40
220.0174321156834
 40
220.0174321156834
 40
220.0174321156834
 10
-854.7691218494956
 20
65.99128900484499
 30
0.0
 10
-854.7695073213881
 20
82.50013770220667
 30
0.0
 10
-854.7703635344444
 20
119.1697161492709
 30
0.0
 10
-854.7718860276149
 20
176.0020855015903
 30
0.0
 10
-854.7703631916229
 20
232.8323808312706
 30
0.0
 10
-854.7695069146978
 20
269.5019463996287
 30
0.0
 10
-854.7691214623466
 20
286.0087210743602
 30
0.0
 11
-854.7691218494956
 21
65.99128900484499
 31
0.0
 11
-854.7703038309073
 21
115.5178350984508
 31
0.0
 11
-854.7713458397145
 21
176.0000243576637
 31
0.0
 11
-854.7703034178053
 21
236.4883970486459
 31
0.0
 11
-854.7691214623466
 21
286.0087210743602
 31
0.0
  0
SPLINE
  5
24D
330
8C
100
AcDbEntity
  8
0
  6
Continuous
 62
     1
100
AcDbSpline
210
0.0
220
0.0
230
1.0
 70
     8
 71
     3
 72
    11
 73
     7
 74
     5
 42
0.0000000001
 43
0.0000000001
 44
0.00000001
 40
0.0
 40
0.0
 40
0.0
 40
0.0
 40
49.83223467660914
 40
109.9617220086618
 40
170.1655110748304
 40
220.0420719479187
 40
220.0420719479187
 40
220.0420719479187
 40
220.0420719479187
 10
-855.7543834395217
 20
65.97896692631619
 30
0.0
 10
-855.7544076924727
 20
82.58971181851011
 30
0.0
 10
-855.7544612099648
 20
119.2436191547105
 30
0.0
 10
-855.7554567503906
 20
175.9654561769872
 30
0.0
 10
-855.754461744806
 20
232.7020685981087
 30
0.0
 10
-855.7544076501545
 20
269.395518577837
 30
0.0
 10
-855.7543831402832
 20
286.0210388688555
 30
0.0
 11
-855.7543834395217
 21
65.97896692631619
 31
0.0
 11
-855.7545773268575
 21
115.8112016025481
 31
0.0
 11
-855.7551048900898
 21
175.9406889322864
 31
0.0
 11
-855.7545776711239
 21
236.1444779961465
 31
0.0
 11
-855.7543831402832
 21
286.0210388688555
 31
0.0
  0
SPLINE
  5
24E
330
8C
100
AcDbEntity
  8
0
  6
Continuous
 62
     3
100
AcDbSpline
210
0.0
220
0.0
230
1.0
 70
     8
 71
     3
 72
    15
 73
    11
 74
     9
 42
0.0000000001
 43
0.0000000001
 44
0.00000001
 40
0.0
 40
0.0
 40
0.0
 40
0.0
 40
0.9947958852540032
 40
1.553065422342647
 40
2.194074891876674
 40
3.117855035397289
 40
3.901539107465214
 40
4.682897817728229
 40
5.540971806332059
 40
6.235886662239947
 40
6.235886662239947
 40
6.235886662239947
 40
6.235886662239947
 10
-855.6222716793616
 20
66.1111030303723
 30
0.0
 10
-855.5985307226267
 20
65.77852130207643
 30
0.0
 10
-855.5614665775646
 20
65.25929802223006
 30
0.0
 10
-855.3233672122574
 20
64.56314763364465
 30
0.0
 10
-855.0025116237053
 20
63.930024627976
 30
0.0
 10
-854.5119283249351
 20
63.30977778077454
 30
0.0
 10
-853.8660791127705
 20
62.78044395348002
 30
0.0
 10
-853.1485991533457
 20
62.40047861092815
 30
0.0
 10
-852.3951077302963
 20
62.1738368202185
 30
0.0
 10
-851.8769731054786
 20
62.14628004600719
 30
0.0
 10
-851.6451237593493
 20
62.13394923510148
 30
0.0
 11
-855.6222716793616
 21
66.1111030303723
 31
0.0
 11
-855.4971069145699
 21
65.12421264386884
 31
0.0
 11
-855.3212728263709
 21
64.5943567677399
 31
0.0
 11
-855.0300779505878
 21
64.02330625828387
 31
0.0
 11
-854.4573710927964
 21
63.2984775829394
 31
0.0
 11
-853.8511136975726
 21
62.80187643961668
 31
0.0
 11
-853.1613763477231
 21
62.4347472766147
 31
0.0
 11
-852.3372971909356
 21
62.19561444058667
 31
0.0
 11
-851.6451237593493
 21
62.13394923510148
 31
0.0
  0
SPLINE
  5
24F
330
8C
100
AcDbEntity
  8
0
  6
Continuous
 62
     3
100
AcDbSpline
210
0.0
220
0.0
230
1.0
 70
     8
 71
     3
 72
    11
 73
     7
 74
     5
 42
0.0000000001
 43
0.0000000001
 44
0.00000001
 40
0.0
 40
0.0
 40
0.0
 40
0.0
 40
49.36982656358912
 40
110.0090584362441
 40
170.47248712544
 40
220.0180449635524
 40
220.0180449635524
 40
220.0180449635524
 40
220.0180449635524
 10
-631.7468789429995
 20
62.9871054955714
 30
0.0
 10
-648.2034877917198
 20
62.98669713802861
 30
0.0
 10
-684.8731739241896
 20
62.98578720919325
 30
0.0
 10
-741.6973362929218
 20
62.98423708082863
 30
0.0
 10
-798.5800757531192
 20
62.98578673128071
 30
0.0
 10
-835.2497379160843
 20
62.98669117735874
 30
0.0
 10
-851.7649238563553
 20
62.98709851940311
 30
0.0
 11
-631.7468789429995
 21
62.9871054955714
 31
0.0
 11
-681.1167054909339
 21
62.98586221654831
 31
0.0
 11
-741.7559373540619
 21
62.98478731370341
 31
0.0
 11
-802.21936603379
 21
62.98585731646345
 31
0.0
 11
-851.7649238563553
 21
62.98709851940311
 31
0.0
  0
SPLINE
  5
250
330
8C
100
AcDbEntity
  8
0
  6
Continuous
 62
     3
100
AcDbSpline
210
0.0
220
0.0
230
1.0
 70
     8
 71
     3
 72
    15
 73
    11
 74
     9
 42
0.0000000001
 43
0.0000000001
 44
0.00000001
 40
0.0
 40
0.0
 40
0.0
 40
0.0
 40
0.4356014600661918
 40
1.184925791545429
 40
1.879180593318546
 40
2.36030105125846
 40
2.841419185469718
 40
3.535678221843532
 40
4.284882242893384
 40
4.720221282598059
 40
4.720221282598059
 40
4.720221282598059
 40
4.720221282598059
 10
-854.7691218494956
 20
65.99128900484499
 30
0.0
 10
-854.763830352247
 20
65.84596409889501
 30
0.0
 10
-854.7494363886344
 20
65.45065038900091
 30
0.0
 10
-854.5771050443125
 20
64.83914118233584
 30
0.0
 10
-854.2649033932164
 20
64.27287886413647
 30
0.0
 10
-853.9054901940132
 20
63.85045757366604
 30
0.0
 10
-853.4830203750167
 20
63.4911010859074
 30
0.0
 10
-852.9167524309357
 20
63.17898478594532
 30
0.0
 10
-852.3053442032458
 20
63.00679121935362
 30
0.0
 10
-851.9101603984377
 20
62.99239088054669
 30
0.0
 10
-851.7649238563553
 20
62.98709851940311
 30
0.0
 11
-854.7691218494956
 21
65.99128900484499
 31
0.0
 11
-854.7405072989716
 21
65.55662840217883
 31
0.0
 11
-854.5446326140941
 21
64.833358009054
 31
0.0
 11
-854.2078739270538
 21
64.22624737952431
 31
0.0
 11
-853.8963325801285
 21
63.85961556938739
 31
0.0
 11
-853.5296612252804
 21
63.54812435506381
 31
0.0
 11
-852.9225022285366
 21
63.2114441473596
 31
0.0
 11
-852.1993227154011
 21
63.01569416156558
 31
0.0
 11
-851.7649238563553
 21
62.98709851940311
 31
0.0
  0
SPLINE
  5
251
330
8C
100
AcDbEntity
  8
0
  6
Continuous
 62
     3
100
AcDbSpline
210
0.0
220
0.0
230
1.0
 70
     8
 71
     3
 72
    19
 73
    15
 74
    13
 42
0.0000000001
 43
0.0000000001
 44
0.00000001
 40
0.0
 40
0.0
 40
0.0
 40
0.0
 40
0.0083773227327246
 40
0.0184061704158664
 40
0.0452853737973951
 40
0.0836780725167141
 40
0.1348445902070161
 40
0.1985755656234161
 40
0.2742253152720719
 40
0.3603672941793937
 40
0.4551169110364535
 40
0.5562869485862605
 40
0.714849481663698
 40
0.8747303806294459
 40
0.8747303806294459
 40
0.8747303806294459
 40
0.8747303806294459
 10
-851.6451237593493
 20
62.13394923510148
 30
0.0
 10
-851.6477603824962
 20
62.13493573005469
 30
0.0
 10
-851.6535534188291
 20
62.13710319987801
 30
0.0
 10
-851.664852047415
 20
62.14753932461498
 30
0.0
 10
-851.6780547187846
 20
62.1691592129727
 30
0.0
 10
-851.6920916329478
 20
62.20545533452958
 30
0.0
 10
-851.7055155128198
 20
62.2548150149354
 30
0.0
 10
-851.7180982869731
 20
62.31710275475744
 30
0.0
 10
-851.7295224540453
 20
62.39142505866864
 30
0.0
 10
-851.7394602647599
 20
62.47637303217601
 30
0.0
 10
-851.7478778469608
 20
62.57002541798801
 30
0.0
 10
-851.7558165260032
 20
62.68792569781228
 30
0.0
 10
-851.7620875732662
 20
62.82767738689272
 30
0.0
 10
-851.7639758228547
 20
62.93381167546161
 30
0.0
 10
-851.7649238563553
 20
62.98709851940311
 30
0.0
 11
-851.6451237593493
 21
62.13394923510148
 31
0.0
 11
-851.6527848991248
 21
62.13733840513399
 31
0.0
 11
-851.6604458018015
 21
62.14381052658129
 31
0.0
 11
-851.6754296681527
 21
62.16612588729082
 31
0.0
 11
-851.6900089135451
 21
62.20164271314479
 31
0.0
 11
-851.7039244935688
 21
62.25088059657975
 31
0.0
 11
-851.7168630918131
 21
62.31328436171454
 31
0.0
 11
-851.7285693668789
 21
62.38802289090791
 31
0.0
 11
-851.7387619555024
 21
62.47355973482457
 31
0.0
 11
-851.7473449612243
 21
62.56791980003935
 31
0.0
 11
-851.7542376152697
 21
62.66885476830129
 31
0.0
 11
-851.7613560934393
 21
62.82725743293949
 31
0.0
 11
-851.7649238563553
 21
62.98709851940311
 31
0.0
  0
SPLINE
  5
252
330
8C
100
AcDbEntity
  8
0
  6
Continuous
 62
     1
100
AcDbSpline
210
0.0
220
0.0
230
1.0
 70
     8
 71
     3
 72
    15
 73
    11
 74
     9
 42
0.0000000001
 43
0.0000000001
 44
0.00000001
 40
0.0
 40
0.0
 40
0.0
 40
0.0
 40
0.9170554809496456
 40
1.558644962155137
 40
2.201963837967595
 40
3.120576527114038
 40
3.762999061618469
 40
4.681713605747703
 40
5.459938390744463
 40
6.239748346181046
 40
6.239748346181046
 40
6.239748346181046
 40
6.239748346181046
 10
-627.7574298028611
 20
286.0210369678679
 30
0.0
 10
-627.7772490221759
 20
286.327491576077
 30
0.0
 10
-627.8109341448107
 20
286.848347665089
 30
0.0
 10
-628.0435113885666
 20
287.5502507443767
 30
0.0
 10
-628.3764070446205
 20
288.2073201521997
 30
0.0
 10
-628.8375958929619
 20
288.7892752502369
 30
0.0
 10
-629.4698795973592
 20
289.3267143942016
 30
0.0
 10
-630.1586009583125
 20
289.7060620598817
 30
0.0
 10
-630.9539852768688
 20
289.9542261488797
 30
0.0
 10
-631.4741869399406
 20
289.9835103050709
 30
0.0
 10
-631.7345524023854
 20
289.9981672802601
 30
0.0
 11
-627.7574298028611
 21
286.0210369678679
 31
0.0
 11
-627.8622167985375
 21
286.9320860558302
 31
0.0
 11
-628.0578897901308
 21
287.5431090854734
 31
0.0
 11
-628.3502230754698
 21
288.1161714086631
 31
0.0
 11
-628.9201169971147
 21
288.8366366685702
 31
0.0
 11
-629.4098539712328
 21
289.2524063271803
 31
0.0
 11
-630.2132594785917
 21
289.698025003113
 31
0.0
 11
-630.9584295509251
 21
289.9224250460762
 31
0.0
 11
-631.7345524023854
 21
289.9981672802601
 31
0.0
  0
SPLINE
  5
253
330
8C
100
AcDbEntity
  8
0
  6
Continuous
 62
     3
100
AcDbSpline
210
0.0
220
0.0
230
1.0
 70
     8
 71
     3
 72
    15
 73
    11
 74
     9
 42
0.0000000001
 43
0.0000000001
 44
0.00000001
 40
0.0
 40
0.0
 40
0.0
 40
0.0
 40
0.9981836111317544
 40
1.552513767184082
 40
2.193528874133935
 40
3.117304511757706
 40
4.041084578686737
 40
4.682094140043877
 40
5.57975375420082
 40
6.235520368585115
 40
6.235520368585115
 40
6.235520368585115
 40
6.235520368585115
 10
-627.8895414019689
 20
285.8889009683592
 30
0.0
 10
-627.9134367999379
 20
286.2226246885592
 30
0.0
 10
-627.950602241151
 20
286.7416781615559
 30
0.0
 10
-628.1888207765836
 20
287.4375331984517
 30
0.0
 10
-628.5090614562323
 20
288.0695567563317
 30
0.0
 10
-629.0284928963133
 20
288.7267093391031
 30
0.0
 10
-629.6857064470616
 20
289.2461598989335
 30
0.0
 10
-630.4195938781149
 20
289.6187153531442
 30
0.0
 10
-631.1298016614724
 20
289.8288469366111
 30
0.0
 10
-631.6479544802312
 20
289.8550109601173
 30
0.0
 10
-631.8666886006213
 20
289.8660558960133
 30
0.0
 11
-627.8895414019689
 21
285.8889009683592
 31
0.0
 11
-628.0155616933592
 21
286.8790976193786
 31
0.0
 11
-628.1903369028939
 21
287.405154220935
 31
0.0
 11
-628.4814579528299
 21
287.9762486979019
 31
0.0
 11
-629.0540650445687
 21
288.7011504479051
 31
0.0
 11
-629.7788926749346
 21
289.2738585046963
 31
0.0
 11
-630.3499427622378
 21
289.565054410475
 31
0.0
 11
-631.2132308548817
 21
289.8110756534352
 31
0.0
 11
-631.8666886006213
 21
289.8660558960133
 31
0.0
  0
SPLINE
  5
254
330
8C
100
AcDbEntity
  8
0
  6
Continuous
 62
     3
100
AcDbSpline
210
0.0
220
0.0
230
1.0
 70
     8
 71
     3
 72
    11
 73
     7
 74
     5
 42
0.0000000001
 43
0.0000000001
 44
0.00000001
 40
0.0
 40
0.0
 40
0.0
 40
0.0
 40
49.70783914540102
 40
110.0086796623372
 40
170.3244482665032
 40
220.0173919557321
 40
220.0173919557321
 40
220.0173919557321
 40
220.0173919557321
 10
-628.7426919923525
 20
286.0087006698889
 30
0.0
 10
-628.7423075442433
 20
269.4394209599265
 30
0.0
 10
-628.7414567201149
 20
232.7698610839251
 30
0.0
 10
-628.7399359929905
 20
175.9950450014066
 30
0.0
 10
-628.7414569737496
 20
119.2251940709495
 30
0.0
 10
-628.74230805045
 20
82.55562331793489
 30
0.0
 10
-628.7426924973329
 20
65.9913087600309
 30
0.0
 11
-628.7426919923525
 21
286.0087006698889
 31
0.0
 11
-628.7415118241584
 21
236.3008615384977
 31
0.0
 11
-628.7404745189242
 21
176.0000210304835
 31
0.0
 11
-628.7415123494266
 21
115.6842524352463
 31
0.0
 11
-628.7426924973329
 21
65.9913087600309
 31
0.0
  0
SPLINE
  5
255
330
8C
100
AcDbEntity
  8
0
  6
Continuous
 62
     3
100
AcDbSpline
210
0.0
220
0.0
230
1.0
 70
     8
 71
     3
 72
    11
 73
     7
 74
     5
 42
0.0000000001
 43
0.0000000001
 44
0.00000001
 40
0.0
 40
0.0
 40
0.0
 40
0.0
 40
53.76923449162058
 40
109.8888821286842
 40
166.0394245545018
 40
219.7777967915174
 40
219.7777967915174
 40
219.7777967915174
 40
219.7777967915174
 10
-627.8895414019689
 20
285.8889009683592
 30
0.0
 10
-627.8891402903123
 20
267.9658228097455
 30
0.0
 10
-627.8883205332153
 20
231.3361954442672
 30
0.0
 10
-627.8868964545799
 20
175.9897205986028
 30
0.0
 10
-627.8883211510017
 20
120.653533171152
 30
0.0
 10
-627.8891409805725
 20
84.02389496095876
 30
0.0
 10
-627.8895418973236
 20
66.11110422054449
 30
0.0
 11
-627.8895414019689
 21
285.8889009683592
 31
0.0
 11
-627.8883086824294
 21
232.1196664908693
 31
0.0
 11
-627.8873780604149
 21
176.0000188615219
 31
0.0
 11
-627.8883096738074
 21
119.8494764434326
 31
0.0
 11
-627.8895418973236
 21
66.11110422054449
 31
0.0
  0
SPLINE
  5
256
330
8C
100
AcDbEntity
  8
0
  6
Continuous
 62
     3
100
AcDbSpline
210
0.0
220
0.0
230
1.0
 70
     8
 71
     3
 72
    15
 73
    11
 74
     9
 42
0.0000000001
 43
0.0000000001
 44
0.00000001
 40
0.0
 40
0.0
 40
0.0
 40
0.0
 40
0.9948022567371119
 40
1.553065198767803
 40
2.194074992062375
 40
3.117854740711437
 40
4.041630576448537
 40
4.682645672917094
 40
5.236977659991974
 40
6.235160179041851
 40
6.235160179041851
 40
6.235160179041851
 40
6.235160179041851
 10
-631.866689645223
 20
62.1339491534192
 30
0.0
 10
-631.5341048026028
 20
62.15769238676619
 30
0.0
 10
-631.0148800609888
 20
62.19475984330612
 30
0.0
 10
-630.3187384545708
 20
62.43284912339297
 30
0.0
 10
-629.6855826570052
 20
62.75375539490399
 30
0.0
 10
-629.0285329361534
 20
63.27332323529585
 30
0.0
 10
-628.5090554330129
 20
63.93044277633362
 30
0.0
 10
-628.1888225912215
 20
64.56247279337107
 30
0.0
 10
-627.9506020720016
 20
65.25832672036935
 30
0.0
 10
-627.9134370124126
 20
65.77738069912563
 30
0.0
 10
-627.8895418973236
 20
66.11110422054449
 30
0.0
 11
-631.866689645223
 21
62.1339491534192
 31
0.0
 11
-630.8797932465593
 21
62.25911715377818
 31
0.0
 11
-630.3499440591411
 21
62.43495045846478
 31
0.0
 11
-629.7788937226087
 21
62.72614638605616
 31
0.0
 11
-629.0540662373228
 21
63.298854113076
 31
0.0
 11
-628.4814588547424
 21
64.0237558858054
 31
0.0
 11
-628.190337686796
 21
64.59485029085079
 31
0.0
 11
-628.0155619176552
 21
65.12090863591871
 31
0.0
 11
-627.8895418973236
 21
66.11110422054449
 31
0.0
  0
SPLINE
  5
257
330
8C
100
AcDbEntity
  8
0
  6
Continuous
 62
     3
100
AcDbSpline
210
0.0
220
0.0
230
1.0
 70
     8
 71
     3
 72
    19
 73
    15
 74
    13
 42
0.0000000001
 43
0.0000000001
 44
0.00000001
 40
0.0
 40
0.0
 40
0.0
 40
0.0
 40
0.1598823337203128
 40
0.3184463726432699
 40
0.4196173880191063
 40
0.514367920784055
 40
0.6005107028292059
 40
0.6761611115253776
 40
0.7398925764713147
 40
0.791059383254811
 40
0.8294518486202535
 40
0.8563308282742953
 40
0.8663598123949195
 40
0.8747371845974763
 40
0.8747371845974763
 40
0.8747371845974763
 40
0.8747371845974763
 10
-631.7468789429995
 20
62.9871054955714
 30
0.0
 10
-631.7478287178105
 20
62.93381820572957
 30
0.0
 10
-631.7497204361533
 20
62.82768300139983
 30
0.0
 10
-631.75599461189
 20
62.68793015961626
 30
0.0
 10
-631.7639352541605
 20
62.57002887886684
 30
0.0
 10
-631.7723539450046
 20
62.47637569404046
 30
0.0
 10
-631.7822923792055
 20
62.39142699938513
 30
0.0
 10
-631.7937167461839
 20
62.31710407315661
 30
0.0
 10
-631.806299406107
 20
62.25481582577638
 30
0.0
 10
-631.81972292846
 20
62.20545586915281
 30
0.0
 10
-631.8337593483934
 20
62.16915961868083
 30
0.0
 10
-631.8469615311603
 20
62.14753959347005
 30
0.0
 10
-631.8582599275903
 20
62.1371032057308
 30
0.0
 10
-631.8640530114883
 20
62.13493567290752
 30
0.0
 10
-631.866689645223
 20
62.1339491534192
 30
0.0
 11
-631.7468789429995
 21
62.9871054955714
 31
0.0
 11
-631.7504516534332
 21
62.82726308450346
 31
0.0
 11
-631.7575737643263
 21
62.6688590757916
 31
0.0
 11
-631.7644680915412
 21
62.56792324169671
 31
0.0
 11
-631.7730522152319
 21
62.47356235848919
 31
0.0
 11
-631.7832454244904
 21
62.3880247797095
 31
0.0
 11
-631.7949518976023
 21
62.31328561445341
 31
0.0
 11
-631.8078903766832
 21
62.25088132467114
 31
0.0
 11
-631.8218056284258
 21
62.20164304804248
 31
0.0
 11
-631.8363843068767
 21
62.1661262417184
 31
0.0
 11
-631.8513676122654
 21
62.1438107738347
 31
0.0
 11
-631.859028490594
 21
62.13733841215395
 31
0.0
 11
-631.866689645223
 21
62.1339491534192
 31
0.0
  0
SPLINE
  5
258
330
8C
100
AcDbEntity
  8
0
  6
Continuous
 62
     3
100
AcDbSpline
210
0.0
220
0.0
230
1.0
 70
     8
 71
     3
 72
    15
 73
    11
 74
     9
 42
0.0000000001
 43
0.0000000001
 44
0.00000001
 40
0.0
 40
0.0
 40
0.0
 40
0.0
 40
0.4356010505907946
 40
1.184926047749678
 40
1.87918073395534
 40
2.360301266785375
 40
2.949109595328368
 40
3.535865844939924
 40
4.285070073596834
 40
4.7204095018168
 40
4.7204095018168
 40
4.7204095018168
 40
4.7204095018168
 10
-631.7468789429995
 20
62.9871054955714
 30
0.0
 10
-631.6015539508137
 20
62.99239773426595
 30
0.0
 10
-631.2062395492608
 20
63.00679373140959
 30
0.0
 10
-630.594737711955
 20
63.17911000273026
 30
0.0
 10
-630.0284508222269
 20
63.4913682732557
 30
0.0
 10
-629.578637002795
 20
63.87399352165986
 30
0.0
 10
-629.226010667922
 20
64.30421599252008
 30
0.0
 10
-628.9249907761149
 20
64.87426892570986
 30
0.0
 10
-628.7623453427414
 20
65.45091651761302
 30
0.0
 10
-628.7479741491766
 20
65.84607972961933
 30
0.0
 10
-628.7426924973329
 20
65.9913087600309
 30
0.0
 11
-631.7468789429995
 21
62.9871054955714
 31
0.0
 11
-631.3122187926755
 21
63.01572068377808
 31
0.0
 11
-630.5889480554904
 21
63.2115966447812
 31
0.0
 11
-629.9818380312211
 21
63.54835618473547
 31
0.0
 11
-629.6152066080703
 21
63.85989810273219
 31
0.0
 11
-629.2422243065935
 21
64.31550698164773
 31
0.0
 11
-628.9670364650194
 21
64.83372947084328
 31
0.0
 11
-628.7712874715588
 21
65.5569094676605
 31
0.0
 11
-628.7426924973329
 21
65.9913087600309
 31
0.0
  0
SPLINE
  5
259
330
8C
100
AcDbEntity
  8
0
  6
Continuous
 62
     3
100
AcDbSpline
210
0.0
220
0.0
230
1.0
 70
     8
 71
     3
 72
    19
 73
    15
 74
    13
 42
0.0000000001
 43
0.0000000001
 44
0.00000001
 40
0.0
 40
0.0
 40
0.0
 40
0.0
 40
0.1598811564442303
 40
0.3184440068803316
 40
0.4196142570143077
 40
0.5143640659802455
 40
0.6005061907548043
 40
0.6761560241524205
 40
0.739887009361959
 40
0.7910534509829245
 40
0.8294455546045406
 40
0.8563243815147665
 40
0.8663534544270981
 40
0.8747309121182308
 40
0.8747309121182308
 40
0.8747309121182308
 40
0.8747309121182308
 10
-628.7426919923525
 20
286.0087006698889
 30
0.0
 10
-628.6894050722918
 20
286.0077521290463
 30
0.0
 10
-628.583270611447
 20
286.0058628685898
 30
0.0
 10
-628.4435186946571
 20
285.9995911962377
 30
0.0
 10
-628.325618188077
 20
285.9916523209678
 30
0.0
 10
-628.2319656140455
 20
285.9832348041145
 30
0.0
 10
-628.1470174719076
 20
285.9732972407295
 30
0.0
 10
-628.0726950304069
 20
285.9618734609586
 30
0.0
 10
-628.0104071920597
 20
285.9492911513517
 30
0.0
 10
-627.9610476025422
 20
285.9358678008956
 30
0.0
 10
-627.9247516413773
 20
285.9218314293191
 30
0.0
 10
-627.9031317936538
 20
285.9086292282615
 30
0.0
 10
-627.8926954476899
 20
285.897330781706
 30
0.0
 10
-627.890527919895
 20
285.8915376333652
 30
0.0
 10
-627.8895414019689
 20
285.8889009683592
 30
0.0
 11
-628.7426919923525
 21
286.0087006698889
 31
0.0
 11
-628.5828506792982
 21
286.00513152055
 31
0.0
 11
-628.4244477307512
 21
285.9980122909531
 31
0.0
 11
-628.3235125606466
 21
285.9911194723632
 31
0.0
 11
-628.2291522966188
 21
285.9825365316259
 31
0.0
 11
-628.1436152757803
 21
285.9723441949581
 31
0.0
 11
-628.0688766007444
 21
285.9606383098163
 31
0.0
 11
-628.0064727287361
 21
285.9477001788017
 31
0.0
 11
-627.957234786775
 21
285.9337850855722
 31
0.0
 11
-627.9217183386111
 21
285.9192064872063
 31
0.0
 11
-627.899403050887
 21
285.9042231875075
 31
0.0
 11
-627.8929306620759
 21
285.8965622158617
 31
0.0
 11
-627.8895414019689
 21
285.8889009683592
 31
0.0
  0
SPLINE
  5
25A
330
8C
100
AcDbEntity
  8
0
  6
Continuous
 62
     1
100
AcDbSpline
210
0.0
220
0.0
230
1.0
 70
     8
 71
     3
 72
    11
 73
     7
 74
     5
 42
0.0000000001
 43
0.0000000001
 44
0.00000001
 40
0.0
 40
0.0
 40
0.0
 40
0.0
 40
49.82344266408092
 40
109.9369448462852
 40
170.1560287764455
 40
220.0420686391406
 40
220.0420686391406
 40
220.0420686391406
 40
220.0420686391406
 10
-627.7574298028611
 20
286.0210369678679
 30
0.0
 10
-627.7574055448898
 20
269.4132227465165
 30
0.0
 10
-627.7573520189366
 20
232.7675744644411
 30
0.0
 10
-627.7563561879455
 20
176.0488982082986
 30
0.0
 10
-627.7573510819088
 20
119.3093562192564
 30
0.0
 10
-627.757405663066
 20
82.60764828833089
 30
0.0
 10
-627.7574303925035
 20
65.9789683341111
 30
0.0
 11
-627.7574298028611
 21
286.0210369678679
 31
0.0
 11
-627.7572358742063
 21
236.1975943041644
 31
0.0
 11
-627.7567080789677
 21
176.0840921242771
 31
0.0
 11
-627.757235303216
 21
115.8650081964247
 31
0.0
 11
-627.7574303925035
 21
65.9789683341111
 31
0.0
  0
SPLINE
  5
25B
330
8C
100
AcDbEntity
  8
0
  6
Continuous
 62
     3
100
AcDbSpline
210
0.0
220
0.0
230
1.0
 70
     8
 71
     3
 72
    15
 73
    11
 74
     9
 42
0.0000000001
 43
0.0000000001
 44
0.00000001
 40
0.0
 40
0.0
 40
0.0
 40
0.0
 40
0.4353390774343815
 40
1.184543245570622
 40
1.771299386547315
 40
2.360107704612958
 40
3.05202915416424
 40
3.535486421661846
 40
4.284810980661514
 40
4.720412387479641
 40
4.720412387479641
 40
4.720412387479641
 40
4.720412387479641
 10
-628.7426919923525
 20
286.0087006698889
 30
0.0
 10
-628.7479747329028
 20
286.1539301234531
 30
0.0
 10
-628.7623488953924
 20
286.5490946680451
 30
0.0
 10
-628.9249619259384
 20
287.1257263784183
 30
0.0
 10
-629.2260888810188
 20
287.695831776663
 30
0.0
 10
-629.6231841702227
 20
288.1806014451744
 30
0.0
 10
-630.0892078665684
 20
288.5491166168912
 30
0.0
 10
-630.662983622711
 20
288.8397342137085
 30
0.0
 10
-631.2062927551391
 20
288.9932933669081
 30
0.0
 10
-631.6015671896004
 20
289.0076326412056
 30
0.0
 10
-631.7468776180133
 20
289.0129040321929
 30
0.0
 11
-628.7426919923525
 21
286.0087006698889
 31
0.0
 11
-628.7712868923938
 21
286.4430996155979
 31
0.0
 11
-628.9670357022928
 21
287.1662795994026
 31
0.0
 11
-629.2422233441955
 21
287.6845020716266
 31
0.0
 11
-629.6152055036459
 21
288.1401110532709
 31
0.0
 11
-630.1581052463313
 21
288.5690809376933
 31
0.0
 11
-630.5889468401293
 21
288.7884127651826
 31
0.0
 11
-631.3122171168642
 21
288.9842887502138
 31
0.0
 11
-631.7468776180133
 21
289.0129040321929
 31
0.0
  0
SPLINE
  5
25C
330
8C
100
AcDbEntity
  8
0
  6
Continuous
 62
     1
100
AcDbSpline
210
0.0
220
0.0
230
1.0
 70
     8
 71
     3
 72
    15
 73
    11
 74
     9
 42
0.0000000001
 43
0.0000000001
 44
0.00000001
 40
0.0
 40
0.0
 40
0.0
 40
0.0
 40
0.9165327520658189
 40
1.557808310412668
 40
2.476522552614898
 40
3.118944947001125
 40
3.899696752269326
 40
4.681116094667813
 40
5.596541400610988
 40
6.239756426930723
 40
6.239756426930723
 40
6.239756426930723
 40
6.239756426930723
 10
-631.7345536989162
 20
62.00183803975259
 30
0.0
 10
-631.4282439966523
 20
62.02169452335184
 30
0.0
 10
-630.9076168846682
 20
62.05544410305509
 30
0.0
 10
-630.1184951091834
 20
62.3162223086627
 30
0.0
 10
-629.4698644773663
 20
62.67322822348108
 30
0.0
 10
-628.872682544977
 20
63.18099112824993
 30
0.0
 10
-628.4029645356501
 20
63.75302516410784
 30
0.0
 10
-628.0147271573603
 20
64.4865719621267
 30
0.0
 10
-627.7921750537431
 20
65.24442206710367
 30
0.0
 10
-627.7675801455772
 20
65.76438966316225
 30
0.0
 10
-627.7574303925035
 20
65.9789683341111
 30
0.0
 11
-631.7345536989162
 21
62.00183803975259
 31
0.0
 11
-630.8240172133253
 21
62.10650701326957
 31
0.0
 11
-630.2132599526371
 21
62.3019805671068
 31
0.0
 11
-629.4098547306683
 21
62.74759913509779
 31
0.0
 11
-628.9201178406158
 21
63.1633686762269
 31
0.0
 11
-628.4251005541267
 21
63.76713292451139
 31
0.0
 11
-628.0578905858399
 21
64.4568959474876
 31
0.0
 11
-627.8089358407185
 21
65.3378187736436
 31
0.0
 11
-627.7574303925035
 21
65.9789683341111
 31
0.0
  0
SPLINE
  5
25D
330
8C
100
AcDbEntity
  8
0
  6
Continuous
 62
     3
100
AcDbSpline
210
0.0
220
0.0
230
1.0
 70
     8
 71
     3
 72
     9
 73
     5
 74
     3
 42
0.0000000001
 43
0.0000000001
 44
0.00000001
 40
0.0
 40
0.0
 40
0.0
 40
0.0
 40
1.645913995805729
 40
3.292148609173839
 40
3.292148609173839
 40
3.292148609173839
 40
3.292148609173839
 10
-670.9621651077657
 20
85.126442415842
 30
0.0
 10
-671.5108031054962
 20
85.12647342623525
 30
0.0
 10
-672.6081859734777
 20
85.12653545306244
 30
0.0
 10
-673.7055688420934
 20
85.12658500536119
 30
0.0
 10
-674.2543137126615
 20
85.1266097839235
 30
0.0
 11
-670.9621651077657
 21
85.126442415842
 31
0.0
 11
-672.6080791011155
 21
85.12653232899703
 31
0.0
 11
-674.2543137126615
 21
85.1266097839235
 31
0.0
  0
SPLINE
  5
25E
330
8C
100
AcDbEntity
  8
0
  6
Continuous
 62
     3
100
AcDbSpline
210
0.0
220
0.0
230
1.0
 70
     8
 71
     3
 72
     9
 73
     5
 74
     3
 42
0.0000000001
 43
0.0000000001
 44
0.00000001
 40
0.0
 40
0.0
 40
0.0
 40
0.0
 40
3.247656039706721
 40
6.493292844647282
 40
6.493292844647282
 40
6.493292844647282
 40
6.493292844647282
 10
-671.6907249325465
 20
90.1929881978831
 30
0.0
 10
-671.1769749565163
 20
89.24010844493765
 30
0.0
 10
-670.1497944292353
 20
87.33494139338973
 30
0.0
 10
-669.1225706398044
 20
85.42979766748411
 30
0.0
 10
-668.6091184642053
 20
84.47752202807598
 30
0.0
 11
-671.6907249325465
 21
90.1929881978831
 31
0.0
 11
-670.149464182191
 21
87.33435477408473
 31
0.0
 11
-668.6091184642053
 21
84.47752202807598
 31
0.0
  0
SPLINE
  5
25F
330
8C
100
AcDbEntity
  8
0
  6
Continuous
 62
     3
100
AcDbSpline
210
0.0
220
0.0
230
1.0
 70
     8
 71
     3
 72
     9
 73
     5
 74
     3
 42
0.0000000001
 43
0.0000000001
 44
0.00000001
 40
0.0
 40
0.0
 40
0.0
 40
0.0
 40
2.857113567374874
 40
5.715465380682363
 40
5.715465380682363
 40
5.715465380682363
 40
5.715465380682363
 10
-667.7901189093762
 20
84.47752222602318
 30
0.0
 10
-667.7901097781747
 20
85.42989341513035
 30
0.0
 10
-667.7900915118145
 20
87.33504854198891
 30
0.0
 10
-667.7901110212613
 20
89.24020366883518
 30
0.0
 10
-667.790120778098
 20
90.1929876065804
 30
0.0
 11
-667.7901189093762
 21
84.47752222602318
 31
0.0
 11
-667.7901009556319
 21
87.33463579334165
 31
0.0
 11
-667.790120778098
 21
90.1929876065804
 31
0.0
  0
SPLINE
  5
260
330
8C
100
AcDbEntity
  8
0
  6
Continuous
 62
     3
100
AcDbSpline
210
0.0
220
0.0
230
1.0
 70
     8
 71
     3
 72
     9
 73
     5
 74
     3
 42
0.0000000001
 43
0.0000000001
 44
0.00000001
 40
0.0
 40
0.0
 40
0.0
 40
0.0
 40
2.85835210946937
 40
5.715464508727774
 40
5.715464508727774
 40
5.715464508727774
 40
5.715464508727774
 10
-665.8482081287507
 20
90.19298717171648
 30
0.0
 10
-665.8482178951571
 20
89.24020313525068
 30
0.0
 10
-665.8482374237337
 20
87.33504829905604
 30
0.0
 10
-665.8482191409811
 20
85.42989346284907
 30
0.0
 10
-665.8482100015875
 20
84.47752266311409
 30
0.0
 11
-665.8482081287507
 21
90.19298717171648
 31
0.0
 11
-665.8482279710361
 21
87.33463506231598
 31
0.0
 11
-665.8482100015875
 21
84.47752266311409
 31
0.0
  0
ENDBLK
  5
8E
330
8C
100
AcDbEntity
  8
0
100
AcDbBlockEnd
  0
BLOCK
  5
91
330
8F
100
AcDbEntity
  8
0
100
AcDbBlockBegin
  2
0059_1502_9000__5
 70
     0
 10
-855.7551057675435
 20
62.001020912987
 30
0.0
  3
0059_1502_9000__5
  1

  0
INSERT
  5
90
330
8F
100
AcDbEntity
  8
0
100
AcDbBlockReference
  2
0059_1502_0000__4
 10
-855.7551057675435
 20
62.001020912987
 30
0.0
  0
ENDBLK
  5
92
330
8F
100
AcDbEntity
  8
0
100
AcDbBlockEnd
  0
BLOCK
  5
95
330
93
100
AcDbEntity
  8
0
100
AcDbBlockBegin
  2
0084_0085A__6
 70
     0
 10
-855.7551057675435
 20
62.001020912987
 30
0.0
  3
0084_0085A__6
  1

  0
INSERT
  5
94
330
93
100
AcDbEntity
  8
0
100
AcDbBlockReference
  2
0059_1502_9000__5
 10
-855.7551057675435
 20
62.001020912987
 30
0.0
  0
ENDBLK
  5
96
330
93
100
AcDbEntity
  8
0
100
AcDbBlockEnd
  0
BLOCK
  5
99
330
97
100
AcDbEntity
  8
0
100
AcDbBlockBegin
  2
Vordans1
 70
     0
 10
-741.703546352792
 20
176.0000000001903
 30
0.0
  3
Vordans1
  1

  0
INSERT
  5
98
330
97
100
AcDbEntity
  8
0
100
AcDbBlockReference
  2
0084_0085A__6
 10
-855.7551057675435
 20
62.001020912987
 30
0.0
  0
LINE
  5
261
330
97
100
AcDbEntity
  8
1
  6
DOT_CENTER
 62
     4
100
AcDbLine
 10
-659.279376943648
 20
264.9982643131193
 30
0.0
 11
-652.279376943648
 21
264.9982643131193
 31
0.0
  0
LINE
  5
262
330
97
100
AcDbEntity
  8
1
  6
DOT_CENTER
 62
     4
100
AcDbLine
 10
-725.939412854243
 20
261.9982643131193
 30
0.0
 11
-712.939412854243
 21
261.9982643131193
 31
0.0
  0
LINE
  5
263
330
97
100
AcDbEntity
  8
1
  6
DOT_CENTER
 62
     4
100
AcDbLine
 10
-836.770912846473
 20
86.99826431311935
 30
0.0
 11
-830.770912846473
 21
86.99826431311935
 31
0.0
  0
LINE
  5
264
330
97
100
AcDbEntity
  8
1
  6
DOT_CENTER
 62
     4
100
AcDbLine
 10
-833.549327848483
 20
90.1586090126474
 30
0.0
 11
-833.549327848483
 21
84.1586090126474
 31
0.0
  0
LINE
  5
265
330
97
100
AcDbEntity
  8
1
  6
DOT_CENTER
 62
     4
100
AcDbLine
 10
-719.549327848483
 20
268.495211440975
 30
0.0
 11
-719.549327848483
 21
255.495211440975
 31
0.0
  0
LINE
  5
266
330
97
100
AcDbEntity
  8
1
  6
DOT_CENTER
 62
     4
100
AcDbLine
 10
-655.549327848483
 20
268.041718653656
 30
0.0
 11
-655.549327848483
 21
261.9982643131193
 31
0.0
  0
LINE
  5
267
330
97
100
AcDbEntity
  8
1
  6
DOT_CENTER
 62
     4
100
AcDbLine
 10
-861.263832928542
 20
175.9982643131193
 30
0.0
 11
-621.263832928542
 21
175.9982643131193
 31
0.0
  0
LINE
  5
268
330
97
100
AcDbEntity
  8
1
  6
DOT_CENTER
 62
     4
100
AcDbLine
 10
-742.0493278484664
 20
295.142243215763
 30
0.0
 11
-742.0493278484664
 21
56.14224321576302
 31
0.0
  0
LINE
  5
269
330
97
100
AcDbEntity
  8
1
  6
Continuous
 62
     1
100
AcDbLine
 10
-568.0493278484664
 20
289.9982643131193
 30
0.0
 11
-340.0493278484664
 21
289.9982643131193
 31
0.0
  0
LINE
  5
26A
330
97
100
AcDbEntity
  8
1
  6
Continuous
 62
     1
100
AcDbLine
 10
-340.0493278484664
 20
289.9982643131193
 30
0.0
 11
-340.0493278484664
 21
61.99826431311931
 31
0.0
  0
LINE
  5
26B
330
97
100
AcDbEntity
  8
1
  6
Continuous
 62
     1
100
AcDbLine
 10
-340.0493278484664
 20
61.99826431311931
 30
0.0
 11
-568.0493278484664
 21
61.99826431311931
 31
0.0
  0
LINE
  5
26C
330
97
100
AcDbEntity
  8
1
  6
Continuous
 62
     1
100
AcDbLine
 10
-568.0493278484664
 20
61.99826431311931
 30
0.0
 11
-568.0493278484664
 21
289.9982643131193
 31
0.0
  0
LINE
  5
26D
330
97
100
AcDbEntity
  8
1
  6
DOT_CENTER
 62
     4
100
AcDbLine
 10
-438.945670775207
 20
261.9982643131193
 30
0.0
 11
-423.945670775207
 21
261.9982643131193
 31
0.0
  0
LINE
  5
26E
330
97
100
AcDbEntity
  8
1
  6
DOT_CENTER
 62
     4
100
AcDbLine
 10
-575.223551417688
 20
175.9982643131193
 30
0.0
 11
-331.223551417688
 21
175.9982643131193
 31
0.0
  0
LINE
  5
26F
330
97
100
AcDbEntity
  8
1
  6
DOT_CENTER
 62
     4
100
AcDbLine
 10
-431.549327848483
 20
269.890060102969
 30
0.0
 11
-431.549327848483
 21
254.890060102969
 31
0.0
  0
LINE
  5
270
330
97
100
AcDbEntity
  8
1
  6
DOT_CENTER
 62
     4
100
AcDbLine
 10
-454.0493278484664
 20
295.403267219421
 30
0.0
 11
-454.0493278484664
 21
55.40326721942103
 31
0.0
  0
CIRCLE
  5
271
330
97
100
AcDbEntity
  8
1
  6
DASHED
 62
     4
100
AcDbCircle
 10
-655.549327848483
 20
264.9982643131193
 30
0.0
 40
2.5
  0
CIRCLE
  5
272
330
97
100
AcDbEntity
  8
1
  6
DASHED
 62
     4
100
AcDbCircle
 10
-719.549327848483
 20
261.9982643131193
 30
0.0
 40
5.499999999999886
  0
CIRCLE
  5
273
330
97
100
AcDbEntity
  8
1
  6
DASHED
 62
     4
100
AcDbCircle
 10
-833.549327848483
 20
86.99826431311935
 30
0.0
 40
2.5
  0
CIRCLE
  5
274
330
97
100
AcDbEntity
  8
1
  6
DASHED
 62
     4
100
AcDbCircle
 10
-431.549327848483
 20
261.9982643131193
 30
0.0
 40
5.511411400000043
  0
CIRCLE
  5
275
330
97
100
AcDbEntity
  8
1
  6
Continuous
 62
     1
100
AcDbCircle
 10
-454.0493278484664
 20
175.9982643131193
 30
0.0
 40
73.5
  0
MTEXT
  5
276
330
97
100
AcDbEntity
  8
1
 62
     4
100
AcDbMText
 10
-741.7035463527919
 20
57.00101852436001
 30
0.0
 40
3.5
 41
0.0
 71
     2
 72
     1
  1
 
  7
CONVERTER_11
 73
     1
 44
1.32052821128451
  0
MTEXT
  5
277
330
97
100
AcDbEntity
  8
1
 62
     2
100
AcDbMText
 10
-543.981530970444
 20
10.3163025709781
 30
0.0
 40
10.0
 41
0.0
 71
     7
 72
     1
  1
Kabeleinf\U+00fchrung / cable entry\Ppassage de cables
  7
CONVERTER_12
 73
     1
 44
1.32052821128451
  0
DIMENSION
  5
282
330
97
100
AcDbEntity
  8
1
100
AcDbDimension
  2
*D18
 10
-855.7543831402832
 20
40.8713477821248
 30
0.0
 11
-738.994021363156
 21
46.3713477821248
 31
0.0
 70
    32
  1
<>
 71
     5
 42
-1.0
 53
0.00013888888889
  3
ME10_DIM_14
100
AcDbAlignedDimension
 13
-627.7574298028611
 23
286.0210369678679
 33
0.0
 14
-855.7543831402832
 24
286.0210388688555
 34
0.0
100
AcDbRotatedDimension
  0
DIMENSION
  5
28E
330
97
100
AcDbEntity
  8
1
100
AcDbDimension
  2
*D19
 10
-742.0493278484664
 20
301.835026250057
 30
0.0
 11
-762.853428435163
 21
307.685026250057
 31
0.0
 70
    32
  1
<>
 71
     5
 42
-1.0
 53
0.00013888888889
  3
ME10_DIM_15
100
AcDbAlignedDimension
 13
-719.549327848483
 23
268.495211440975
 33
0.0
 14
-742.0493278484664
 24
295.142243215763
 34
0.0
100
AcDbRotatedDimension
  0
DIMENSION
  5
299
330
97
100
AcDbEntity
  8
1
100
AcDbDimension
  2
*D20
 10
-610.179182804688
 20
175.9982643131193
 30
0.0
 11
-615.679182804688
 21
221.882143181488
 31
0.0
 70
    32
  1
<>
 71
     5
 42
-1.0
 53
90.0
  3
ME10_DIM_16
100
AcDbAlignedDimension
 13
-712.939412854243
 23
261.9982643131193
 33
0.0
 14
-621.263832928542
 24
175.9982643131193
 34
0.0
 50
90.0
100
AcDbRotatedDimension
  0
DIMENSION
  5
2A4
330
97
100
AcDbEntity
  8
1
100
AcDbDimension
  2
*D21
 10
-655.549327848483
 20
325.135980125651
 30
0.0
 11
-738.864561258257
 21
330.635980125651
 31
0.0
 70
    32
  1
<>
 71
     5
 42
-1.0
 53
0.00013888888889
  3
ME10_DIM_17
100
AcDbAlignedDimension
 13
-833.549327848483
 23
90.1586090126474
 33
0.0
 14
-655.549327848483
 24
268.041718653656
 34
0.0
100
AcDbRotatedDimension
  0
DIMENSION
  5
2AF
330
97
100
AcDbEntity
  8
1
100
AcDbDimension
  2
*D22
 10
-871.781888584395
 20
264.9982643131193
 30
0.0
 11
-877.281888584395
 21
177.429939911027
 31
0.0
 70
    32
  1
<>
 71
     5
 42
-1.0
 53
90.0
  3
ME10_DIM_18
100
AcDbAlignedDimension
 13
-836.770912846473
 23
86.99826431311935
 33
0.0
 14
-659.279376943648
 24
264.9982643131193
 34
0.0
 50
90.0
100
AcDbRotatedDimension
  0
DIMENSION
  5
2BA
330
97
100
AcDbEntity
  8
1
100
AcDbDimension
  2
*D23
 10
-454.0493278484664
 20
302.661228325458
 30
0.0
 11
-441.226676737257
 21
304.661228325458
 31
0.0
 70
    32
 71
     5
 42
-1.0
 53
0.00013888888889
  3
ME10_DIM_19
100
AcDbAlignedDimension
 13
-431.549327848483
 23
269.890060102969
 33
0.0
 14
-454.0493278484664
 24
295.403267219421
 34
0.0
100
AcDbRotatedDimension
  0
DIMENSION
  5
2C5
330
97
100
AcDbEntity
  8
1
100
AcDbDimension
  2
*D24
 10
-322.604066877292
 20
175.9982643131193
 30
0.0
 11
-324.604066877292
 21
221.536343162868
 31
0.0
 70
    32
 71
     5
 42
-1.0
 53
90.0
  3
ME10_DIM_20
100
AcDbAlignedDimension
 13
-423.945670775207
 23
261.9982643131193
 33
0.0
 14
-331.223551417688
 24
175.9982643131193
 34
0.0
 50
90.0
100
AcDbRotatedDimension
  0
ENDBLK
  5
9A
330
97
100
AcDbEntity
  8
0
100
AcDbBlockEnd
  0
BLOCK
  5
1F3
330
1EB
100
AcDbEntity
  8
0
100
AcDbBlockBegin
  2
*D14
 70
     1
 10
0.0
 20
0.0
 30
0.0
  3
*D14
  1

  0
LINE
  5
1EC
330
1EB
100
AcDbEntity
  8
1
  6
Continuous
 62
     4
100
AcDbLine
 10
-930.270217154453
 20
105.0519325121552
 30
0.0
 11
-930.270217154453
 21
252.0414741487902
 31
0.0
  0
LINE
  5
1ED
330
1EB
100
AcDbEntity
  8
1
  6
Continuous
 62
     4
100
AcDbLine
 10
-1068.954176015952
 20
105.0519325121552
 30
0.0
 11
-928.270217154453
 21
105.0519325121552
 31
0.0
  0
LINE
  5
1EE
330
1EB
100
AcDbEntity
  8
1
  6
Continuous
 62
     4
100
AcDbLine
 10
-1067.951558034036
 20
252.0414741487902
 30
0.0
 11
-928.270217154453
 21
252.0414741487902
 31
0.0
  0
SOLID
  5
1EF
330
1EB
100
AcDbEntity
  8
1
 62
     4
100
AcDbTrace
 10
-931.1917846375648
 20
112.0519325121552
 30
0.0
 11
-929.3486496713413
 21
112.0519325121552
 31
0.0
 12
-930.270217154453
 22
105.0519325121552
 32
0.0
 13
-930.270217154453
 23
105.0519325121552
 33
0.0
  0
SOLID
  5
1F0
330
1EB
100
AcDbEntity
  8
1
 62
     4
100
AcDbTrace
 10
-929.3486496713413
 20
245.0414741487902
 30
0.0
 11
-931.1917846375648
 21
245.0414741487902
 31
0.0
 12
-930.270217154453
 22
252.0414741487902
 32
0.0
 13
-930.270217154453
 23
252.0414741487902
 33
0.0
  0
MTEXT
  5
1F2
330
1EB
100
AcDbEntity
  8
1
 62
     2
100
AcDbMText
 10
-932.270217154453
 20
166.457317627855
 30
0.0
 40
7.0
 41
0.0
 71
     7
 72
     1
  1
\C2;{\Fgdt;n}\C2;147\C2;mm
  7
CONVERTER_12
 11
0.0
 21
1.0
 31
0.0
 73
     1
 44
0.60024009603842
  0
ENDBLK
  5
1F4
330
1EB
100
AcDbEntity
  8
0
100
AcDbBlockEnd
  0
BLOCK
  5
1FE
330
1F7
100
AcDbEntity
  8
0
100
AcDbBlockBegin
  2
*D15
 70
     1
 10
0.0
 20
0.0
 30
0.0
  3
*D15
  1

  0
LINE
  5
1F8
330
1F7
100
AcDbEntity
  8
1
  6
Continuous
 62
     4
100
AcDbLine
 10
-952.0515580339082
 20
24.976383808222
 30
0.0
 11
-1067.951558034036
 21
24.976383808222
 31
0.0
  0
LINE
  5
1F9
330
1F7
100
AcDbEntity
  8
1
  6
Continuous
 62
     4
100
AcDbLine
 10
-952.0515580339082
 20
136.5848477129381
 30
0.0
 11
-952.0515580339082
 21
22.976383808222
 31
0.0
  0
LINE
  5
1FA
330
1F7
100
AcDbEntity
  8
1
  6
Continuous
 62
     4
100
AcDbLine
 10
-1067.951558034036
 20
67.02314560480656
 30
0.0
 11
-1067.951558034036
 21
22.976383808222
 31
0.0
  0
SOLID
  5
1FB
330
1F7
100
AcDbEntity
  8
1
 62
     4
100
AcDbTrace
 10
-959.0515580339082
 20
24.05481632511023
 30
0.0
 11
-959.0515580339082
 21
25.89795129133377
 31
0.0
 12
-952.0515580339082
 22
24.976383808222
 32
0.0
 13
-952.0515580339082
 23
24.976383808222
 33
0.0
  0
SOLID
  5
1FC
330
1F7
100
AcDbEntity
  8
1
 62
     4
100
AcDbTrace
 10
-1060.951558034036
 20
25.89795129133377
 30
0.0
 11
-1060.951558034036
 21
24.05481632511023
 31
0.0
 12
-1067.951558034036
 22
24.976383808222
 32
0.0
 13
-1067.951558034036
 23
24.976383808222
 33
0.0
  0
MTEXT
  5
1FD
330
1F7
100
AcDbEntity
  8
1
 62
     2
100
AcDbMText
 10
-1030.551558034011
 20
27.676383808222
 30
0.0
 40
7.0
 41
0.0
 71
     7
 72
     1
  1
\C2;\C2;115,9\C2;mm
  7
CONVERTER_12
 11
0.9999999999970619
 21
2.424068405545306E-6
 31
0.0
 73
     1
 44
0.60024009603842
  0
ENDBLK
  5
1FF
330
1F7
100
AcDbEntity
  8
0
100
AcDbBlockEnd
  0
BLOCK
  5
209
330
202
100
AcDbEntity
  8
0
100
AcDbBlockBegin
  2
*D16
 70
     1
 10
0.0
 20
0.0
 30
0.0
  3
*D16
  1

  0
LINE
  5
203
330
202
100
AcDbEntity
  8
1
  6
Continuous
 62
     4
100
AcDbLine
 10
-963.051558033986
 20
40.8713477821248
 30
0.0
 11
-1067.951558034036
 21
40.8713477821248
 31
0.0
  0
LINE
  5
204
330
202
100
AcDbEntity
  8
1
  6
Continuous
 62
     4
100
AcDbLine
 10
-963.051558033986
 20
105.6064423906456
 30
0.0
 11
-963.051558033986
 21
38.8713477821248
 31
0.0
  0
LINE
  5
205
330
202
100
AcDbEntity
  8
1
  6
Continuous
 62
     4
100
AcDbLine
 10
-1067.951558034036
 20
75.52314560480656
 30
0.0
 11
-1067.951558034036
 21
38.8713477821248
 31
0.0
  0
SOLID
  5
206
330
202
100
AcDbEntity
  8
1
 62
     4
100
AcDbTrace
 10
-970.051558033986
 20
39.94978029901303
 30
0.0
 11
-970.051558033986
 21
41.79291526523657
 31
0.0
 12
-963.051558033986
 22
40.8713477821248
 32
0.0
 13
-963.051558033986
 23
40.8713477821248
 33
0.0
  0
SOLID
  5
207
330
202
100
AcDbEntity
  8
1
 62
     4
100
AcDbTrace
 10
-1060.951558034036
 20
41.79291526523657
 30
0.0
 11
-1060.951558034036
 21
39.94978029901303
 31
0.0
 12
-1067.951558034036
 22
40.8713477821248
 32
0.0
 13
-1067.951558034036
 23
40.8713477821248
 33
0.0
  0
MTEXT
  5
208
330
202
100
AcDbEntity
  8
1
 62
     2
100
AcDbMText
 10
-1031.391558034011
 20
43.5713477821248
 30
0.0
 40
7.0
 41
0.0
 71
     7
 72
     1
  1
\C2;104,9\C2;mm
  7
CONVERTER_12
 11
0.9999999999970619
 21
2.424068405545306E-6
 31
0.0
 73
     1
 44
0.60024009603842
  0
ENDBLK
  5
20A
330
202
100
AcDbEntity
  8
0
100
AcDbBlockEnd
  0
BLOCK
  5
214
330
20D
100
AcDbEntity
  8
0
100
AcDbBlockBegin
  2
*D17
 70
     1
 10
0.0
 20
0.0
 30
0.0
  3
*D17
  1

  0
LINE
  5
20E
330
20D
100
AcDbEntity
  8
1
  6
Continuous
 62
     4
100
AcDbLine
 10
-1067.951558034036
 20
40.8713477821248
 30
0.0
 11
-1141.355537633784
 21
40.8713477821248
 31
0.0
  0
LINE
  5
20F
330
20D
100
AcDbEntity
  8
1
  6
Continuous
 62
     4
100
AcDbLine
 10
-1067.951558034036
 20
67.02314560480656
 30
0.0
 11
-1067.951558034036
 21
38.8713477821248
 31
0.0
  0
LINE
  5
210
330
20D
100
AcDbEntity
  8
1
  6
Continuous
 62
     4
100
AcDbLine
 10
-1141.355537633784
 20
176.0493421955853
 30
0.0
 11
-1141.355537633784
 21
38.8713477821248
 31
0.0
  0
SOLID
  5
211
330
20D
100
AcDbEntity
  8
1
 62
     4
100
AcDbTrace
 10
-1074.951558034036
 20
39.94978029901303
 30
0.0
 11
-1074.951558034036
 21
41.79291526523657
 31
0.0
 12
-1067.951558034036
 22
40.8713477821248
 32
0.0
 13
-1067.951558034036
 23
40.8713477821248
 33
0.0
  0
SOLID
  5
212
330
20D
100
AcDbEntity
  8
1
 62
     4
100
AcDbTrace
 10
-1134.355537633784
 20
41.79291526523657
 30
0.0
 11
-1134.355537633784
 21
39.94978029901303
 31
0.0
 12
-1141.355537633784
 22
40.8713477821248
 32
0.0
 13
-1141.355537633784
 23
40.8713477821248
 33
0.0
  0
MTEXT
  5
213
330
20D
100
AcDbEntity
  8
1
 62
     2
100
AcDbMText
 10
-1117.72875181896
 20
43.5713477821248
 30
0.0
 40
7.0
 41
0.0
 71
     7
 72
     1
  1
\C2;73,4\C2;mm
  7
CONVERTER_12
 11
0.9999999999970619
 21
2.424068405545306E-6
 31
0.0
 73
     1
 44
0.60024009603842
  0
ENDBLK
  5
215
330
20D
100
AcDbEntity
  8
0
100
AcDbBlockEnd
  0
BLOCK
  5
27F
330
278
100
AcDbEntity
  8
0
100
AcDbBlockBegin
  2
*D18
 70
     1
 10
0.0
 20
0.0
 30
0.0
  3
*D18
  1

  0
LINE
  5
279
330
278
100
AcDbEntity
  8
1
  6
Continuous
 62
     4
100
AcDbLine
 10
-855.7543831402832
 20
40.8713477821248
 30
0.0
 11
-627.7574298028611
 21
40.8713477821248
 31
0.0
  0
LINE
  5
27A
330
278
100
AcDbEntity
  8
1
  6
Continuous
 62
     4
100
AcDbLine
 10
-855.7543831402832
 20
286.0210388688555
 30
0.0
 11
-855.7543831402832
 21
38.8713477821248
 31
0.0
  0
LINE
  5
27B
330
278
100
AcDbEntity
  8
1
  6
Continuous
 62
     4
100
AcDbLine
 10
-627.7574298028611
 20
286.0210369678679
 30
0.0
 11
-627.7574298028611
 21
38.8713477821248
 31
0.0
  0
SOLID
  5
27C
330
278
100
AcDbEntity
  8
1
 62
     4
100
AcDbTrace
 10
-848.7543831402832
 20
41.79291526523657
 30
0.0
 11
-848.7543831402832
 21
39.94978029901303
 31
0.0
 12
-855.7543831402832
 22
40.8713477821248
 32
0.0
 13
-855.7543831402832
 23
40.8713477821248
 33
0.0
  0
SOLID
  5
27D
330
278
100
AcDbEntity
  8
1
 62
     4
100
AcDbTrace
 10
-634.7574298028611
 20
39.94978029901303
 30
0.0
 11
-634.7574298028611
 21
41.79291526523657
 31
0.0
 12
-627.7574298028611
 22
40.8713477821248
 32
0.0
 13
-627.7574298028611
 23
40.8713477821248
 33
0.0
  0
MTEXT
  5
27E
330
278
100
AcDbEntity
  8
1
 62
     2
100
AcDbMText
 10
-753.8340213631392
 20
42.87133386797215
 30
0.0
 40
7.0
 41
0.0
 71
     7
 72
     1
  1
\C2;\C2;228\C2;mm
  7
CONVERTER_12
 11
0.9999999999970619
 21
2.424068405545306E-6
 31
0.0
 73
     1
 44
0.60024009603842
  0
ENDBLK
  5
280
330
278
100
AcDbEntity
  8
0
100
AcDbBlockEnd
  0
BLOCK
  5
28B
330
283
100
AcDbEntity
  8
0
100
AcDbBlockBegin
  2
*D19
 70
     1
 10
0.0
 20
0.0
 30
0.0
  3
*D19
  1

  0
LINE
  5
284
330
283
100
AcDbEntity
  8
1
  6
Continuous
 62
     4
100
AcDbLine
 10
-777.063428435163
 20
301.835026250057
 30
0.0
 11
-742.0493278484664
 21
301.835026250057
 31
0.0
  0
LINE
  5
285
330
283
100
AcDbEntity
  8
1
  6
Continuous
 62
     4
100
AcDbLine
 10
-742.0493278484664
 20
301.835026250057
 30
0.0
 11
-719.549327848483
 21
301.835026250057
 31
0.0
  0
LINE
  5
286
330
283
100
AcDbEntity
  8
1
  6
Continuous
 62
     4
100
AcDbLine
 10
-742.0493278484664
 20
295.142243215763
 30
0.0
 11
-742.0493278484664
 21
303.835026250057
 31
0.0
  0
LINE
  5
287
330
283
100
AcDbEntity
  8
1
  6
Continuous
 62
     4
100
AcDbLine
 10
-719.549327848483
 20
268.495211440975
 30
0.0
 11
-719.549327848483
 21
303.835026250057
 31
0.0
  0
SOLID
  5
288
330
283
100
AcDbEntity
  8
1
 62
     4
100
AcDbTrace
 10
-735.0493278484664
 20
302.7565937331687
 30
0.0
 11
-735.0493278484664
 21
300.9134587669452
 31
0.0
 12
-742.0493278484664
 22
301.835026250057
 32
0.0
 13
-742.0493278484664
 23
301.835026250057
 33
0.0
  0
SOLID
  5
289
330
283
100
AcDbEntity
  8
1
 62
     4
100
AcDbTrace
 10
-726.549327848483
 20
300.9134587669452
 30
0.0
 11
-726.549327848483
 21
302.7565937331687
 31
0.0
 12
-719.549327848483
 22
301.835026250057
 32
0.0
 13
-719.549327848483
 23
301.835026250057
 33
0.0
  0
MTEXT
  5
28A
330
283
100
AcDbEntity
  8
1
 62
     2
100
AcDbMText
 10
-777.063428435163
 20
304.535026250057
 30
0.0
 40
7.0
 41
0.0
 71
     7
 72
     1
  1
\C2;22,5\C2;mm
  7
CONVERTER_12
 11
0.9999999999970619
 21
2.424068405545306E-6
 31
0.0
 73
     1
 44
0.60024009603842
  0
ENDBLK
  5
28C
330
283
100
AcDbEntity
  8
0
100
AcDbBlockEnd
  0
BLOCK
  5
296
330
28F
100
AcDbEntity
  8
0
100
AcDbBlockBegin
  2
*D20
 70
     1
 10
0.0
 20
0.0
 30
0.0
  3
*D20
  1

  0
LINE
  5
290
330
28F
100
AcDbEntity
  8
1
  6
Continuous
 62
     4
100
AcDbLine
 10
-610.179182804688
 20
175.9982643131193
 30
0.0
 11
-610.179182804688
 21
261.9982643131193
 31
0.0
  0
LINE
  5
291
330
28F
100
AcDbEntity
  8
1
  6
Continuous
 62
     4
100
AcDbLine
 10
-621.263832928542
 20
175.9982643131193
 30
0.0
 11
-608.179182804688
 21
175.9982643131193
 31
0.0
  0
LINE
  5
292
330
28F
100
AcDbEntity
  8
1
  6
Continuous
 62
     4
100
AcDbLine
 10
-712.939412854243
 20
261.9982643131193
 30
0.0
 11
-608.179182804688
 21
261.9982643131193
 31
0.0
  0
SOLID
  5
293
330
28F
100
AcDbEntity
  8
1
 62
     4
100
AcDbTrace
 10
-611.1007502877998
 20
182.9982643131193
 30
0.0
 11
-609.2576153215763
 21
182.9982643131193
 31
0.0
 12
-610.179182804688
 22
175.9982643131193
 32
0.0
 13
-610.179182804688
 23
175.9982643131193
 33
0.0
  0
SOLID
  5
294
330
28F
100
AcDbEntity
  8
1
 62
     4
100
AcDbTrace
 10
-609.2576153215763
 20
254.9982643131193
 30
0.0
 11
-611.1007502877998
 21
254.9982643131193
 31
0.0
 12
-610.179182804688
 22
261.9982643131193
 32
0.0
 13
-610.179182804688
 23
261.9982643131193
 33
0.0
  0
MTEXT
  5
295
330
28F
100
AcDbEntity
  8
1
 62
     2
100
AcDbMText
 10
-612.179182804688
 20
211.172143181488
 30
0.0
 40
7.0
 41
0.0
 71
     7
 72
     1
  1
\C2;86\C2;mm
  7
CONVERTER_12
 11
0.0
 21
1.0
 31
0.0
 73
     1
 44
0.60024009603842
  0
ENDBLK
  5
297
330
28F
100
AcDbEntity
  8
0
100
AcDbBlockEnd
  0
BLOCK
  5
2A1
330
29A
100
AcDbEntity
  8
0
100
AcDbBlockBegin
  2
*D21
 70
     1
 10
0.0
 20
0.0
 30
0.0
  3
*D21
  1

  0
LINE
  5
29B
330
29A
100
AcDbEntity
  8
1
  6
Continuous
 62
     4
100
AcDbLine
 10
-655.549327848483
 20
325.135980125651
 30
0.0
 11
-833.549327848483
 21
325.135980125651
 31
0.0
  0
LINE
  5
29C
330
29A
100
AcDbEntity
  8
1
  6
Continuous
 62
     4
100
AcDbLine
 10
-655.549327848483
 20
268.041718653656
 30
0.0
 11
-655.549327848483
 21
327.135980125651
 31
0.0
  0
LINE
  5
29D
330
29A
100
AcDbEntity
  8
1
  6
Continuous
 62
     4
100
AcDbLine
 10
-833.549327848483
 20
90.15860901264736
 30
0.0
 11
-833.549327848483
 21
327.135980125651
 31
0.0
  0
SOLID
  5
29E
330
29A
100
AcDbEntity
  8
1
 62
     4
100
AcDbTrace
 10
-662.549327848483
 20
324.2144126425392
 30
0.0
 11
-662.549327848483
 21
326.0575476087627
 31
0.0
 12
-655.549327848483
 22
325.135980125651
 32
0.0
 13
-655.549327848483
 23
325.135980125651
 33
0.0
  0
SOLID
  5
29F
330
29A
100
AcDbEntity
  8
1
 62
     4
100
AcDbTrace
 10
-826.549327848483
 20
326.0575476087627
 30
0.0
 11
-826.549327848483
 21
324.2144126425392
 31
0.0
 12
-833.549327848483
 22
325.135980125651
 32
0.0
 13
-833.549327848483
 23
325.135980125651
 33
0.0
  0
MTEXT
  5
2A0
330
29A
100
AcDbEntity
  8
1
 62
     2
100
AcDbMText
 10
-749.894561258257
 20
327.135980125651
 30
0.0
 40
7.0
 41
0.0
 71
     7
 72
     1
  1
\C2;178\C2;mm
  7
CONVERTER_12
 11
0.9999999999970619
 21
2.424068405545306E-6
 31
0.0
 73
     1
 44
0.60024009603842
  0
ENDBLK
  5
2A2
330
29A
100
AcDbEntity
  8
0
100
AcDbBlockEnd
  0
BLOCK
  5
2AC
330
2A5
100
AcDbEntity
  8
0
100
AcDbBlockBegin
  2
*D22
 70
     1
 10
0.0
 20
0.0
 30
0.0
  3
*D22
  1

  0
LINE
  5
2A6
330
2A5
100
AcDbEntity
  8
1
  6
Continuous
 62
     4
100
AcDbLine
 10
-871.781888584395
 20
264.9982643131193
 30
0.0
 11
-871.781888584395
 21
86.99826431311936
 31
0.0
  0
LINE
  5
2A7
330
2A5
100
AcDbEntity
  8
1
  6
Continuous
 62
     4
100
AcDbLine
 10
-659.279376943648
 20
264.9982643131193
 30
0.0
 11
-873.781888584395
 21
264.9982643131193
 31
0.0
  0
LINE
  5
2A8
330
2A5
100
AcDbEntity
  8
1
  6
Continuous
 62
     4
100
AcDbLine
 10
-836.770912846473
 20
86.99826431311935
 30
0.0
 11
-873.781888584395
 21
86.99826431311935
 31
0.0
  0
SOLID
  5
2A9
330
2A5
100
AcDbEntity
  8
1
 62
     4
100
AcDbTrace
 10
-870.8603211012833
 20
257.9982643131193
 30
0.0
 11
-872.7034560675067
 21
257.9982643131193
 31
0.0
 12
-871.781888584395
 22
264.9982643131193
 32
0.0
 13
-871.781888584395
 23
264.9982643131193
 33
0.0
  0
SOLID
  5
2AA
330
2A5
100
AcDbEntity
  8
1
 62
     4
100
AcDbTrace
 10
-872.7034560675067
 20
93.99826431311936
 30
0.0
 11
-870.8603211012833
 21
93.99826431311936
 31
0.0
 12
-871.781888584395
 22
86.99826431311936
 32
0.0
 13
-871.781888584395
 23
86.99826431311936
 33
0.0
  0
MTEXT
  5
2AB
330
2A5
100
AcDbEntity
  8
1
 62
     2
100
AcDbMText
 10
-873.781888584395
 20
165.039939911027
 30
0.0
 40
7.0
 41
0.0
 71
     7
 72
     1
  1
\C2;178\C2;mm
  7
CONVERTER_12
 11
0.0
 21
1.0
 31
0.0
 73
     1
 44
0.60024009603842
  0
ENDBLK
  5
2AD
330
2A5
100
AcDbEntity
  8
0
100
AcDbBlockEnd
  0
BLOCK
  5
2B7
330
2B0
100
AcDbEntity
  8
0
100
AcDbBlockBegin
  2
*D23
 70
     1
 10
0.0
 20
0.0
 30
0.0
  3
*D23
  1

  0
LINE
  5
2B1
330
2B0
100
AcDbEntity
  8
1
  6
Continuous
 62
     4
100
AcDbLine
 10
-454.0493278484664
 20
302.661228325458
 30
0.0
 11
-431.549327848483
 21
302.661228325458
 31
0.0
  0
LINE
  5
2B2
330
2B0
100
AcDbEntity
  8
1
  6
Continuous
 62
     4
100
AcDbLine
 10
-454.0493278484664
 20
295.403267219421
 30
0.0
 11
-454.0493278484664
 21
304.661228325458
 31
0.0
  0
LINE
  5
2B3
330
2B0
100
AcDbEntity
  8
1
  6
Continuous
 62
     4
100
AcDbLine
 10
-431.549327848483
 20
269.890060102969
 30
0.0
 11
-431.549327848483
 21
304.661228325458
 31
0.0
  0
SOLID
  5
2B4
330
2B0
100
AcDbEntity
  8
1
 62
     4
100
AcDbTrace
 10
-447.0493278484664
 20
303.5827958085698
 30
0.0
 11
-447.0493278484664
 21
301.7396608423463
 31
0.0
 12
-454.0493278484664
 22
302.661228325458
 32
0.0
 13
-454.0493278484664
 23
302.661228325458
 33
0.0
  0
SOLID
  5
2B5
330
2B0
100
AcDbEntity
  8
1
 62
     4
100
AcDbTrace
 10
-438.549327848483
 20
301.7396608423463
 30
0.0
 11
-438.549327848483
 21
303.5827958085698
 31
0.0
 12
-431.549327848483
 22
302.661228325458
 32
0.0
 13
-431.549327848483
 23
302.661228325458
 33
0.0
  0
MTEXT
  5
2B6
330
2B0
100
AcDbEntity
  8
1
 62
     2
100
AcDbMText
 10
-445.076676737257
 20
303.086228325458
 30
0.0
 40
3.5
 41
0.0
 71
     7
 72
     1
  1

  7
CONVERTER_12
 11
0.9999999999970619
 21
2.424068405545306E-6
 31
0.0
 73
     1
 44
0.60024009603842
  0
ENDBLK
  5
2B8
330
2B0
100
AcDbEntity
  8
0
100
AcDbBlockEnd
  0
BLOCK
  5
2C2
330
2BB
100
AcDbEntity
  8
0
100
AcDbBlockBegin
  2
*D24
 70
     1
 10
0.0
 20
0.0
 30
0.0
  3
*D24
  1

  0
LINE
  5
2BC
330
2BB
100
AcDbEntity
  8
1
  6
Continuous
 62
     4
100
AcDbLine
 10
-322.604066877292
 20
175.9982643131193
 30
0.0
 11
-322.604066877292
 21
261.9982643131193
 31
0.0
  0
LINE
  5
2BD
330
2BB
100
AcDbEntity
  8
1
  6
Continuous
 62
     4
100
AcDbLine
 10
-331.223551417688
 20
175.9982643131193
 30
0.0
 11
-320.604066877292
 21
175.9982643131193
 31
0.0
  0
LINE
  5
2BE
330
2BB
100
AcDbEntity
  8
1
  6
Continuous
 62
     4
100
AcDbLine
 10
-423.945670775207
 20
261.9982643131193
 30
0.0
 11
-320.604066877292
 21
261.9982643131193
 31
0.0
  0
SOLID
  5
2BF
330
2BB
100
AcDbEntity
  8
1
 62
     4
100
AcDbTrace
 10
-323.5256343604037
 20
182.9982643131193
 30
0.0
 11
-321.6824993941802
 21
182.9982643131193
 31
0.0
 12
-322.604066877292
 22
175.9982643131193
 32
0.0
 13
-322.604066877292
 23
175.9982643131193
 33
0.0
  0
SOLID
  5
2C0
330
2BB
100
AcDbEntity
  8
1
 62
     4
100
AcDbTrace
 10
-321.6824993941802
 20
254.9982643131193
 30
0.0
 11
-323.5256343604037
 21
254.9982643131193
 31
0.0
 12
-322.604066877292
 22
261.9982643131193
 32
0.0
 13
-322.604066877292
 23
261.9982643131193
 33
0.0
  0
MTEXT
  5
2C1
330
2BB
100
AcDbEntity
  8
1
 62
     2
100
AcDbMText
 10
-322.854066877292
 20
219.436343162868
 30
0.0
 40
3.5
 41
0.0
 71
     7
 72
     1
  1

  7
CONVERTER_12
 11
0.0
 21
1.0
 31
0.0
 73
     1
 44
0.60024009603842
  0
ENDBLK
  5
2C3
330
2BB
100
AcDbEntity
  8
0
100
AcDbBlockEnd
  0
ENDSEC
  0
SECTION
  2
ENTITIES
  0
INSERT
  5
9B
330
1F
100
AcDbEntity
  8
0
100
AcDbBlockReference
  2
Drfsicht1
 10
-1046.703546475056
 20
176.0000003527925
 30
0.0
  0
INSERT
  5
9C
330
1F
100
AcDbEntity
  8
0
100
AcDbBlockReference
  2
Vordans1
 10
-741.703546352792
 20
176.0000000001903
 30
0.0
  0
ENDSEC
  0
SECTION
  2
OBJECTS
  0
DICTIONARY
  5
C
330
0
100
AcDbDictionary
281
     1
  3
ACAD_GROUP
350
D
  3
ACAD_LAYOUT
350
1A
  3
ACAD_MATERIAL
350
3B
  3
ACAD_MLEADERSTYLE
350
2C8
  3
ACAD_MLINESTYLE
350
17
  3
ACAD_PLOTSETTINGS
350
19
  3
ACAD_PLOTSTYLENAME
350
E
  3
ACAD_SCALELIST
350
4E
  3
ACAD_VISUALSTYLE
350
2A
  3
AcDbVariableDictionary
350
2C6
  0
DICTIONARY
  5
D
102
{ACAD_REACTORS
330
C
102
}
330
C
100
AcDbDictionary
281
     1
  0
DICTIONARY
  5
1A
102
{ACAD_REACTORS
330
C
102
}
330
C
100
AcDbDictionary
281
     1
  3
Layout1
350
1E
  3
Layout2
350
26
  3
Model
350
22
  0
DICTIONARY
  5
3B
102
{ACAD_REACTORS
330
C
102
}
330
C
100
AcDbDictionary
281
     1
  3
ByBlock
350
3D
  3
ByLayer
350
3C
  3
Global
350
3E
  0
DICTIONARY
  5
2C8
102
{ACAD_REACTORS
330
C
102
}
330
C
100
AcDbDictionary
281
     1
  0
DICTIONARY
  5
17
102
{ACAD_REACTORS
330
C
102
}
330
C
100
AcDbDictionary
281
     1
  3
Standard
350
18
  0
DICTIONARY
  5
19
102
{ACAD_REACTORS
330
C
102
}
330
C
100
AcDbDictionary
281
     1
  0
ACDBDICTIONARYWDFLT
  5
E
102
{ACAD_REACTORS
330
C
102
}
330
C
100
AcDbDictionary
281
     1
  3
Normal
350
F
100
AcDbDictionaryWithDefault
340
F
  0
DICTIONARY
  5
4E
102
{ACAD_REACTORS
330
C
102
}
330
C
100
AcDbDictionary
281
     1
  3
A0
350
4F
  3
A1
350
50
  3
A2
350
51
  3
A3
350
52
  3
A4
350
53
  3
A5
350
54
  3
A6
350
55
  3
A7
350
56
  3
A8
350
57
  3
A9
350
58
  3
B0
350
59
  3
B1
350
5A
  3
B2
350
5B
  3
B3
350
5C
  3
B4
350
5D
  3
B5
350
5E
  3
B6
350
5F
  3
B7
350
60
  3
B8
350
61
  3
B9
350
62
  3
C0
350
63
  3
C1
350
64
  3
C2
350
65
  3
C3
350
66
  3
C4
350
67
  3
C5
350
68
  3
C6
350
69
  3
C7
350
6A
  3
C8
350
6B
  3
C9
350
6C
  3
D0
350
6D
  3
D1
350
6E
  3
D2
350
6F
  0
DICTIONARY
  5
2A
102
{ACAD_REACTORS
330
C
102
}
330
C
100
AcDbDictionary
281
     1
  3
2dWireframe
350
2F
  3
3D Hidden
350
31
  3
3dWireframe
350
30
  3
Basic
350
32
  3
Brighten
350
36
  3
ColorChange
350
3A
  3
Conceptual
350
34
  3
Dim
350
35
  3
Facepattern
350
39
  3
Flat
350
2B
  3
FlatWithEdges
350
2C
  3
Gouraud
350
2D
  3
GouraudWithEdges
350
2E
  3
Linepattern
350
38
  3
Realistic
350
33
  3
Thicken
350
37
  0
DICTIONARY
  5
2C6
102
{ACAD_REACTORS
330
C
102
}
330
C
100
AcDbDictionary
281
     1
  3
CANNOSCALE
350
2C9
  3
DIMASSOC
350
2CA
  3
HIDETEXT
350
2CB
  0
LAYOUT
  5
1E
102
{ACAD_REACTORS
330
1A
102
}
330
1A
100
AcDbPlotSettings
  1

  2
none_device
  4

  6

 40
0.0
 41
0.0
 42
0.0
 43
0.0
 44
0.0
 45
0.0
 46
0.0
 47
0.0
 48
0.0
 49
0.0
140
0.0
141
0.0
142
1.0
143
1.0
 70
   688
 72
     0
 73
     0
 74
     5
  7

 75
    16
147
1.0
148
0.0
149
0.0
100
AcDbLayout
  1
Layout1
 70
     1
 71
     1
 10
0.0
 20
0.0
 11
12.0
 21
9.0
 12
0.0
 22
0.0
 32
0.0
 14
1.00000000000000E+20
 24
1.00000000000000E+20
 34
1.00000000000000E+20
 15
-1.00000000000000E+20
 25
-1.00000000000000E+20
 35
-1.00000000000000E+20
146
0.0
 13
0.0
 23
0.0
 33
0.0
 16
1.0
 26
0.0
 36
0.0
 17
0.0
 27
1.0
 37
0.0
 76
     0
330
1B
  0
LAYOUT
  5
26
102
{ACAD_REACTORS
330
1A
102
}
330
1A
100
AcDbPlotSettings
  1

  2
none_device
  4

  6

 40
0.0
 41
0.0
 42
0.0
 43
0.0
 44
0.0
 45
0.0
 46
0.0
 47
0.0
 48
0.0
 49
0.0
140
0.0
141
0.0
142
1.0
143
1.0
 70
   688
 72
     0
 73
     0
 74
     5
  7

 75
    16
147
1.0
148
0.0
149
0.0
100
AcDbLayout
  1
Layout2
 70
     1
 71
     2
 10
0.0
 20
0.0
 11
0.0
 21
0.0
 12
0.0
 22
0.0
 32
0.0
 14
0.0
 24
0.0
 34
0.0
 15
0.0
 25
0.0
 35
0.0
146
0.0
 13
0.0
 23
0.0
 33
0.0
 16
1.0
 26
0.0
 36
0.0
 17
0.0
 27
1.0
 37
0.0
 76
     0
330
23
  0
LAYOUT
  5
22
102
{ACAD_REACTORS
330
1A
102
}
330
1A
100
AcDbPlotSettings
  1

  2
none_device
  4

  6

 40
0.0
 41
0.0
 42
0.0
 43
0.0
 44
0.0
 45
0.0
 46
0.0
 47
0.0
 48
0.0
 49
0.0
140
0.0
141
0.0
142
1.0
143
1.0
 70
  1712
 72
     0
 73
     0
 74
     0
  7

 75
     0
147
1.0
148
0.0
149
0.0
100
AcDbLayout
  1
Model
 70
     1
 71
     0
 10
0.0
 20
0.0
 11
12.0
 21
9.0
 12
0.0
 22
0.0
 32
0.0
 14
-1141.355537633785
 24
7.3163025709781
 34
0.0
 15
-320.604066877292
 25
334.135980125651
 35
0.0
146
0.0
 13
0.0
 23
0.0
 33
0.0
 16
1.0
 26
0.0
 36
0.0
 17
0.0
 27
1.0
 37
0.0
 76
     0
330
1F
331
29
  0
MATERIAL
  5
3D
102
{ACAD_REACTORS
330
3B
102
}
102
{ACAD_XDICTIONARY
360
2EE
102
}
330
3B
100
AcDbMaterial
  1
ByBlock
  0
MATERIAL
  5
3C
102
{ACAD_REACTORS
330
3B
102
}
102
{ACAD_XDICTIONARY
360
2EC
102
}
330
3B
100
AcDbMaterial
  1
ByLayer
  0
MATERIAL
  5
3E
102
{ACAD_REACTORS
330
3B
102
}
102
{ACAD_XDICTIONARY
360
2F0
102
}
330
3B
100
AcDbMaterial
  1
Global
  0
MLINESTYLE
  5
18
102
{ACAD_REACTORS
330
17
102
}
330
17
100
AcDbMlineStyle
  2
Standard
 70
     0
  3

 62
   256
 51
90.0
 52
90.0
 71
     2
 49
0.5
 62
   256
  6
BYLAYER
 49
-0.5
 62
   256
  6
BYLAYER
  0
ACDBPLACEHOLDER
  5
F
102
{ACAD_REACTORS
330
E
102
}
330
E
  0
SCALE
  5
4F
102
{ACAD_REACTORS
330
4E
102
}
330
4E
100
AcDbScale
 70
     0
300
1:1
140
1.0
141
1.0
290
     1
  0
SCALE
  5
50
102
{ACAD_REACTORS
330
4E
102
}
330
4E
100
AcDbScale
 70
     0
300
1:2
140
1.0
141
2.0
290
     0
  0
SCALE
  5
51
102
{ACAD_REACTORS
330
4E
102
}
330
4E
100
AcDbScale
 70
     0
300
1:4
140
1.0
141
4.0
290
     0
  0
SCALE
  5
52
102
{ACAD_REACTORS
330
4E
102
}
330
4E
100
AcDbScale
 70
     0
300
1:5
140
1.0
141
5.0
290
     0
  0
SCALE
  5
53
102
{ACAD_REACTORS
330
4E
102
}
330
4E
100
AcDbScale
 70
     0
300
1:8
140
1.0
141
8.0
290
     0
  0
SCALE
  5
54
102
{ACAD_REACTORS
330
4E
102
}
330
4E
100
AcDbScale
 70
     0
300
1:10
140
1.0
141
10.0
290
     0
  0
SCALE
  5
55
102
{ACAD_REACTORS
330
4E
102
}
330
4E
100
AcDbScale
 70
     0
300
1:16
140
1.0
141
16.0
290
     0
  0
SCALE
  5
56
102
{ACAD_REACTORS
330
4E
102
}
330
4E
100
AcDbScale
 70
     0
300
1:20
140
1.0
141
20.0
290
     0
  0
SCALE
  5
57
102
{ACAD_REACTORS
330
4E
102
}
330
4E
100
AcDbScale
 70
     0
300
1:30
140
1.0
141
30.0
290
     0
  0
SCALE
  5
58
102
{ACAD_REACTORS
330
4E
102
}
330
4E
100
AcDbScale
 70
     0
300
1:40
140
1.0
141
40.0
290
     0
  0
SCALE
  5
59
102
{ACAD_REACTORS
330
4E
102
}
330
4E
100
AcDbScale
 70
     0
300
1:50
140
1.0
141
50.0
290
     0
  0
SCALE
  5
5A
102
{ACAD_REACTORS
330
4E
102
}
330
4E
100
AcDbScale
 70
     0
300
1:100
140
1.0
141
100.0
290
     0
  0
SCALE
  5
5B
102
{ACAD_REACTORS
330
4E
102
}
330
4E
100
AcDbScale
 70
     0
300
2:1
140
2.0
141
1.0
290
     0
  0
SCALE
  5
5C
102
{ACAD_REACTORS
330
4E
102
}
330
4E
100
AcDbScale
 70
     0
300
4:1
140
4.0
141
1.0
290
     0
  0
SCALE
  5
5D
102
{ACAD_REACTORS
330
4E
102
}
330
4E
100
AcDbScale
 70
     0
300
8:1
140
8.0
141
1.0
290
     0
  0
SCALE
  5
5E
102
{ACAD_REACTORS
330
4E
102
}
330
4E
100
AcDbScale
 70
     0
300
10:1
140
10.0
141
1.0
290
     0
  0
SCALE
  5
5F
102
{ACAD_REACTORS
330
4E
102
}
330
4E
100
AcDbScale
 70
     0
300
100:1
140
100.0
141
1.0
290
     0
  0
SCALE
  5
60
102
{ACAD_REACTORS
330
4E
102
}
330
4E
100
AcDbScale
 70
     0
300
1/128" = 1'-0"
140
0.0078125
141
12.0
290
     0
  0
SCALE
  5
61
102
{ACAD_REACTORS
330
4E
102
}
330
4E
100
AcDbScale
 70
     0
300
1/64" = 1'-0"
140
0.015625
141
12.0
290
     0
  0
SCALE
  5
62
102
{ACAD_REACTORS
330
4E
102
}
330
4E
100
AcDbScale
 70
     0
300
1/32" = 1'-0"
140
0.03125
141
12.0
290
     0
  0
SCALE
  5
63
102
{ACAD_REACTORS
330
4E
102
}
330
4E
100
AcDbScale
 70
     0
300
1/16" = 1'-0"
140
0.0625
141
12.0
290
     0
  0
SCALE
  5
64
102
{ACAD_REACTORS
330
4E
102
}
330
4E
100
AcDbScale
 70
     0
300
3/32" = 1'-0"
140
0.09375
141
12.0
290
     0
  0
SCALE
  5
65
102
{ACAD_REACTORS
330
4E
102
}
330
4E
100
AcDbScale
 70
     0
300
1/8" = 1'-0"
140
0.125
141
12.0
290
     0
  0
SCALE
  5
66
102
{ACAD_REACTORS
330
4E
102
}
330
4E
100
AcDbScale
 70
     0
300
3/16" = 1'-0"
140
0.1875
141
12.0
290
     0
  0
SCALE
  5
67
102
{ACAD_REACTORS
330
4E
102
}
330
4E
100
AcDbScale
 70
     0
300
1/4" = 1'-0"
140
0.25
141
12.0
290
     0
  0
SCALE
  5
68
102
{ACAD_REACTORS
330
4E
102
}
330
4E
100
AcDbScale
 70
     0
300
3/8" = 1'-0"
140
0.375
141
12.0
290
     0
  0
SCALE
  5
69
102
{ACAD_REACTORS
330
4E
102
}
330
4E
100
AcDbScale
 70
     0
300
1/2" = 1'-0"
140
0.5
141
12.0
290
     0
  0
SCALE
  5
6A
102
{ACAD_REACTORS
330
4E
102
}
330
4E
100
AcDbScale
 70
     0
300
3/4" = 1'-0"
140
0.75
141
12.0
290
     0
  0
SCALE
  5
6B
102
{ACAD_REACTORS
330
4E
102
}
330
4E
100
AcDbScale
 70
     0
300
1" = 1'-0"
140
1.0
141
12.0
290
     0
  0
SCALE
  5
6C
102
{ACAD_REACTORS
330
4E
102
}
330
4E
100
AcDbScale
 70
     0
300
1-1/2" = 1'-0"
140
1.5
141
12.0
290
     0
  0
SCALE
  5
6D
102
{ACAD_REACTORS
330
4E
102
}
330
4E
100
AcDbScale
 70
     0
300
3" = 1'-0"
140
3.0
141
12.0
290
     0
  0
SCALE
  5
6E
102
{ACAD_REACTORS
330
4E
102
}
330
4E
100
AcDbScale
 70
     0
300
6" = 1'-0"
140
6.0
141
12.0
290
     0
  0
SCALE
  5
6F
102
{ACAD_REACTORS
330
4E
102
}
330
4E
100
AcDbScale
 70
     0
300
1'-0" = 1'-0"
140
12.0
141
12.0
290
     0
  0
VISUALSTYLE
  5
2F
102
{ACAD_REACTORS
330
2A
102
}
102
{ACAD_XDICTIONARY
360
2D4
102
}
330
2A
100
AcDbVisualStyle
  2
2dWireframe
 70
     4
 71
     0
 72
     2
 73
     0
 90
        0
 40
-0.6
 41
-30.0
 62
     5
 63
     7
 74
     1
 91
        4
 64
     7
 65
   257
 75
     1
175
     1
 42
1.0
 92
        0
 66
   257
 43
1.0
 76
     1
 77
     6
 78
     2
 67
     7
 79
     5
170
     0
171
     0
290
     0
174
     0
 93
        1
 44
0.0
173
     0
291
     0
 45
0.0
1001
ACAD
1000
AcDbSavedByObjectVersion
1070
     0
  0
VISUALSTYLE
  5
31
102
{ACAD_REACTORS
330
2A
102
}
102
{ACAD_XDICTIONARY
360
2D8
102
}
330
2A
100
AcDbVisualStyle
  2
3D Hidden
 70
     6
 71
     1
 72
     2
 73
     2
 90
        0
 40
-0.6
 41
-30.0
 62
     5
 63
     7
 74
     2
 91
        2
 64
     7
 65
   257
 75
     2
175
     1
 42
40.0
 92
        0
 66
   257
 43
1.0
 76
     1
 77
     6
 78
     2
 67
     7
 79
     3
170
     0
171
     0
290
     0
174
     0
 93
        1
 44
0.0
173
     0
291
     0
 45
0.0
1001
ACAD
1000
AcDbSavedByObjectVersion
1070
     0
  0
VISUALSTYLE
  5
30
102
{ACAD_REACTORS
330
2A
102
}
102
{ACAD_XDICTIONARY
360
2D6
102
}
330
2A
100
AcDbVisualStyle
  2
3dWireframe
 70
     5
 71
     0
 72
     2
 73
     0
 90
        0
 40
-0.6
 41
-30.0
 62
     5
 63
     7
 74
     1
 91
        4
 64
     7
 65
   257
 75
     1
175
     1
 42
1.0
 92
        0
 66
   257
 43
1.0
 76
     1
 77
     6
 78
     2
 67
     7
 79
     5
170
     0
171
     0
290
     0
174
     0
 93
        1
 44
0.0
173
     0
291
     0
 45
0.0
1001
ACAD
1000
AcDbSavedByObjectVersion
1070
     0
  0
VISUALSTYLE
  5
32
102
{ACAD_REACTORS
330
2A
102
}
102
{ACAD_XDICTIONARY
360
2DA
102
}
330
2A
100
AcDbVisualStyle
  2
Basic
 70
     7
 71
     1
 72
     0
 73
     1
 90
        0
 40
-0.6
 41
-30.0
 62
     5
 63
     7
 74
     0
 91
        4
 64
     7
 65
   257
 75
     1
175
     1
 42
1.0
 92
        8
 66
     7
 43
1.0
 76
     1
 77
     6
 78
     2
 67
     7
 79
     5
170
     0
171
     0
290
     0
174
     0
 93
        1
 44
0.0
173
     0
291
     1
 45
0.0
1001
ACAD
1000
AcDbSavedByObjectVersion
1070
     0
  0
VISUALSTYLE
  5
36
102
{ACAD_REACTORS
330
2A
102
}
102
{ACAD_XDICTIONARY
360
2E2
102
}
330
2A
100
AcDbVisualStyle
  2
Brighten
 70
    12
 71
     2
 72
     2
 73
     0
 90
        0
 40
-0.6
 41
-30.0
 62
     5
 63
     7
 74
     1
 91
        4
 64
     7
 65
   257
 75
     1
175
     1
 42
1.0
 92
        8
 66
     7
 43
1.0
 76
     1
 77
     6
 78
     2
 67
     7
 79
     5
170
     0
171
     0
290
     0
174
     0
 93
        1
 44
50.0
173
     0
291
     1
 45
0.0
1001
ACAD
1000
AcDbSavedByObjectVersion
1070
     0
  0
VISUALSTYLE
  5
3A
102
{ACAD_REACTORS
330
2A
102
}
102
{ACAD_XDICTIONARY
360
2EA
102
}
330
2A
100
AcDbVisualStyle
  2
ColorChange
 70
    16
 71
     2
 72
     2
 73
     3
 90
        0
 40
-0.6
 41
-30.0
 62
     5
 63
     8
 74
     1
 91
        4
 64
     7
 65
   257
 75
     1
175
     1
 42
1.0
 92
        8
 66
     8
 43
1.0
 76
     1
 77
     6
 78
     2
 67
     7
 79
     5
170
     0
171
     0
290
     0
174
     0
 93
        1
 44
0.0
173
     0
291
     1
 45
0.0
1001
ACAD
1000
AcDbSavedByObjectVersion
1070
     0
  0
VISUALSTYLE
  5
34
102
{ACAD_REACTORS
330
2A
102
}
102
{ACAD_XDICTIONARY
360
2DE
102
}
330
2A
100
AcDbVisualStyle
  2
Conceptual
 70
     9
 71
     3
 72
     2
 73
     0
 90
        0
 40
-0.6
 41
-30.0
 62
     5
 63
     7
 74
     2
 91
        2
 64
     7
 65
   257
 75
     1
175
     1
 42
40.0
 92
        8
 66
     7
 43
1.0
 76
     1
 77
     6
 78
     2
 67
     7
 79
     3
170
     0
171
     0
290
     0
174
     0
 93
        1
 44
0.0
173
     0
291
     0
 45
0.0
1001
ACAD
1000
AcDbSavedByObjectVersion
1070
     0
  0
VISUALSTYLE
  5
35
102
{ACAD_REACTORS
330
2A
102
}
102
{ACAD_XDICTIONARY
360
2E0
102
}
330
2A
100
AcDbVisualStyle
  2
Dim
 70
    11
 71
     2
 72
     2
 73
     0
 90
        0
 40
-0.6
 41
-30.0
 62
     5
 63
     7
 74
     1
 91
        4
 64
     7
 65
   257
 75
     1
175
     1
 42
1.0
 92
        8
 66
     7
 43
1.0
 76
     1
 77
     6
 78
     2
 67
     7
 79
     5
170
     0
171
     0
290
     0
174
     0
 93
        1
 44
-50.0
173
     0
291
     1
 45
0.0
1001
ACAD
1000
AcDbSavedByObjectVersion
1070
     0
  0
VISUALSTYLE
  5
39
102
{ACAD_REACTORS
330
2A
102
}
102
{ACAD_XDICTIONARY
360
2E8
102
}
330
2A
100
AcDbVisualStyle
  2
Facepattern
 70
    15
 71
     2
 72
     2
 73
     0
 90
        0
 40
-0.6
 41
-30.0
 62
     5
 63
     7
 74
     1
 91
        4
 64
     7
 65
   257
 75
     1
175
     1
 42
1.0
 92
        8
 66
     7
 43
1.0
 76
     1
 77
     6
 78
     2
 67
     7
 79
     5
170
     0
171
     0
290
     0
174
     0
 93
        1
 44
0.0
173
     0
291
     1
 45
0.0
1001
ACAD
1000
AcDbSavedByObjectVersion
1070
     0
  0
VISUALSTYLE
  5
2B
102
{ACAD_REACTORS
330
2A
102
}
102
{ACAD_XDICTIONARY
360
2CC
102
}
330
2A
100
AcDbVisualStyle
  2
Flat
 70
     0
 71
     2
 72
     1
 73
     1
 90
        2
 40
-0.6
 41
30.0
 62
     5
 63
     7
 74
     0
 91
        4
 64
     7
 65
   257
 75
     1
175
     1
 42
1.0
 92
        8
 66
     7
 43
1.0
 76
     1
 77
     6
 78
     2
 67
     7
 79
     5
170
     0
171
     0
290
     0
174
     0
 93
       13
 44
0.0
173
     0
291
     1
 45
0.0
1001
ACAD
1000
AcDbSavedByObjectVersion
1070
     0
  0
VISUALSTYLE
  5
2C
102
{ACAD_REACTORS
330
2A
102
}
102
{ACAD_XDICTIONARY
360
2CE
102
}
330
2A
100
AcDbVisualStyle
  2
FlatWithEdges
 70
     1
 71
     2
 72
     1
 73
     1
 90
        2
 40
-0.6
 41
30.0
 62
     5
 63
     7
 74
     1
 91
        4
 64
     7
 65
   257
 75
     1
175
     1
 42
1.0
 92
        0
 66
   257
 43
1.0
 76
     1
 77
     6
 78
     2
 67
     7
 79
     5
170
     0
171
     0
290
     0
174
     0
 93
       13
 44
0.0
173
     0
291
     1
 45
0.0
1001
ACAD
1000
AcDbSavedByObjectVersion
1070
     0
  0
VISUALSTYLE
  5
2D
102
{ACAD_REACTORS
330
2A
102
}
102
{ACAD_XDICTIONARY
360
2D0
102
}
330
2A
100
AcDbVisualStyle
  2
Gouraud
 70
     2
 71
     2
 72
     2
 73
     1
 90
        2
 40
-0.6
 41
30.0
 62
     5
 63
     7
 74
     0
 91
        4
 64
     7
 65
   257
 75
     1
175
     1
 42
1.0
 92
        0
 66
     7
 43
1.0
 76
     1
 77
     6
 78
     2
 67
     7
 79
     5
170
     0
171
     0
290
     0
174
     0
 93
       13
 44
0.0
173
     0
291
     1
 45
0.0
1001
ACAD
1000
AcDbSavedByObjectVersion
1070
     0
  0
VISUALSTYLE
  5
2E
102
{ACAD_REACTORS
330
2A
102
}
102
{ACAD_XDICTIONARY
360
2D2
102
}
330
2A
100
AcDbVisualStyle
  2
GouraudWithEdges
 70
     3
 71
     2
 72
     2
 73
     1
 90
        2
 40
-0.6
 41
30.0
 62
     5
 63
     7
 74
     1
 91
        4
 64
     7
 65
   257
 75
     1
175
     1
 42
1.0
 92
        0
 66
   257
 43
1.0
 76
     1
 77
     6
 78
     2
 67
     7
 79
     5
170
     0
171
     0
290
     0
174
     0
 93
       13
 44
0.0
173
     0
291
     1
 45
0.0
1001
ACAD
1000
AcDbSavedByObjectVersion
1070
     0
  0
VISUALSTYLE
  5
38
102
{ACAD_REACTORS
330
2A
102
}
102
{ACAD_XDICTIONARY
360
2E6
102
}
330
2A
100
AcDbVisualStyle
  2
Linepattern
 70
    14
 71
     2
 72
     2
 73
     0
 90
        0
 40
-0.6
 41
-30.0
 62
     5
 63
     7
 74
     1
 91
        4
 64
     7
 65
   257
 75
     7
175
     7
 42
1.0
 92
        8
 66
     7
 43
1.0
 76
     1
 77
     6
 78
     2
 67
     7
 79
     5
170
     0
171
     0
290
     0
174
     0
 93
        1
 44
0.0
173
     0
291
     1
 45
0.0
1001
ACAD
1000
AcDbSavedByObjectVersion
1070
     0
  0
VISUALSTYLE
  5
33
102
{ACAD_REACTORS
330
2A
102
}
102
{ACAD_XDICTIONARY
360
2DC
102
}
330
2A
100
AcDbVisualStyle
  2
Realistic
 70
     8
 71
     2
 72
     2
 73
     0
 90
        0
 40
-0.6
 41
-30.0
 62
     5
 63
     7
 74
     1
 91
        0
 64
     7
 65
   257
 75
     1
175
     1
 42
1.0
 92
        8
 66
     8
 43
1.0
 76
     1
 77
     6
 78
     2
 67
     7
 79
     5
170
     0
171
     0
290
     0
174
     0
 93
       13
 44
0.0
173
     0
291
     0
 45
0.0
1001
ACAD
1000
AcDbSavedByObjectVersion
1070
     0
  0
VISUALSTYLE
  5
37
102
{ACAD_REACTORS
330
2A
102
}
102
{ACAD_XDICTIONARY
360
2E4
102
}
330
2A
100
AcDbVisualStyle
  2
Thicken
 70
    13
 71
     2
 72
     2
 73
     0
 90
        0
 40
-0.6
 41
-30.0
 62
     5
 63
     7
 74
     1
 91
        4
 64
     7
 65
   257
 75
     1
175
     1
 42
1.0
 92
       12
 66
     7
 43
1.0
 76
     1
 77
     6
 78
     2
 67
     7
 79
     5
170
     0
171
     0
290
     0
174
     0
 93
        1
 44
0.0
173
     0
291
     1
 45
0.0
1001
ACAD
1000
AcDbSavedByObjectVersion
1070
     0
  0
DICTIONARYVAR
  5
2C9
102
{ACAD_REACTORS
330
2C6
102
}
330
2C6
100
DictionaryVariables
280
     0
  1
1:1
  0
DICTIONARYVAR
  5
2CA
102
{ACAD_REACTORS
330
2C6
102
}
330
2C6
100
DictionaryVariables
280
     0
  1
2
  0
DICTIONARYVAR
  5
2CB
102
{ACAD_REACTORS
330
2C6
102
}
330
2C6
100
DictionaryVariables
280
     0
  1
1
  0
DICTIONARY
  5
2EE
330
3D
100
AcDbDictionary
280
     1
281
     1
  3
ACAD_XREC_ROUNDTRIP
360
2EF
  0
DICTIONARY
  5
2EC
330
3C
100
AcDbDictionary
280
     1
281
     1
  3
ACAD_XREC_ROUNDTRIP
360
2ED
  0
DICTIONARY
  5
2F0
330
3E
100
AcDbDictionary
280
     1
281
     1
  3
ACAD_XREC_ROUNDTRIP
360
2F1
  0
DICTIONARY
  5
2D4
330
2F
100
AcDbDictionary
280
     1
281
     1
  3
ACAD_XREC_ROUNDTRIP
360
2D5
  0
DICTIONARY
  5
2D8
330
31
100
AcDbDictionary
280
     1
281
     1
  3
ACAD_XREC_ROUNDTRIP
360
2D9
  0
DICTIONARY
  5
2D6
330
30
100
AcDbDictionary
280
     1
281
     1
  3
ACAD_XREC_ROUNDTRIP
360
2D7
  0
DICTIONARY
  5
2DA
330
32
100
AcDbDictionary
280
     1
281
     1
  3
ACAD_XREC_ROUNDTRIP
360
2DB
  0
DICTIONARY
  5
2E2
330
36
100
AcDbDictionary
280
     1
281
     1
  3
ACAD_XREC_ROUNDTRIP
360
2E3
  0
DICTIONARY
  5
2EA
330
3A
100
AcDbDictionary
280
     1
281
     1
  3
ACAD_XREC_ROUNDTRIP
360
2EB
  0
DICTIONARY
  5
2DE
330
34
100
AcDbDictionary
280
     1
281
     1
  3
ACAD_XREC_ROUNDTRIP
360
2DF
  0
DICTIONARY
  5
2E0
330
35
100
AcDbDictionary
280
     1
281
     1
  3
ACAD_XREC_ROUNDTRIP
360
2E1
  0
DICTIONARY
  5
2E8
330
39
100
AcDbDictionary
280
     1
281
     1
  3
ACAD_XREC_ROUNDTRIP
360
2E9
  0
DICTIONARY
  5
2CC
330
2B
100
AcDbDictionary
280
     1
281
     1
  3
ACAD_XREC_ROUNDTRIP
360
2CD
  0
DICTIONARY
  5
2CE
330
2C
100
AcDbDictionary
280
     1
281
     1
  3
ACAD_XREC_ROUNDTRIP
360
2CF
  0
DICTIONARY
  5
2D0
330
2D
100
AcDbDictionary
280
     1
281
     1
  3
ACAD_XREC_ROUNDTRIP
360
2D1
  0
DICTIONARY
  5
2D2
330
2E
100
AcDbDictionary
280
     1
281
     1
  3
ACAD_XREC_ROUNDTRIP
360
2D3
  0
DICTIONARY
  5
2E6
330
38
100
AcDbDictionary
280
     1
281
     1
  3
ACAD_XREC_ROUNDTRIP
360
2E7
  0
DICTIONARY
  5
2DC
330
33
100
AcDbDictionary
280
     1
281
     1
  3
ACAD_XREC_ROUNDTRIP
360
2DD
  0
DICTIONARY
  5
2E4
330
37
100
AcDbDictionary
280
     1
281
     1
  3
ACAD_XREC_ROUNDTRIP
360
2E5
  0
XRECORD
  5
2EF
102
{ACAD_REACTORS
330
2EE
102
}
330
2EE
100
AcDbXrecord
280
     1
102
MATERIAL
148
0.0
149
0.0
149
0.0
 93
        0
 94
      127
282
     0
 72
     1
 77
     1
171
     1
175
     1
179
     1
273
     0
  0
XRECORD
  5
2ED
102
{ACAD_REACTORS
330
2EC
102
}
330
2EC
100
AcDbXrecord
280
     1
102
MATERIAL
148
0.0
149
0.0
149
0.0
 93
        0
 94
      127
282
     0
 72
     1
 77
     1
171
     1
175
     1
179
     1
273
     0
  0
XRECORD
  5
2F1
102
{ACAD_REACTORS
330
2F0
102
}
330
2F0
100
AcDbXrecord
280
     1
102
MATERIAL
148
0.0
149
0.0
149
0.0
 93
        0
 94
      127
282
     0
 72
     1
 77
     1
171
     1
175
     1
179
     1
273
     0
  0
XRECORD
  5
2D5
102
{ACAD_REACTORS
330
2D4
102
}
330
2D4
100
AcDbXrecord
280
     1
102
RTVSPropertyOp0
 70
     1
102
RTVSPropertyOp1
 70
     1
102
RTVSPropertyOp2
 70
     1
102
RTVSPropertyOp3
 70
     1
102
RTVSPropertyOp4
 70
     1
102
RTVSPropertyOp5
 70
     1
102
RTVSPropertyOp6
 70
     1
102
RTVSPropertyOp7
 70
     1
102
RTVSPropertyOp8
 70
     1
102
RTVSPropertyOp9
 70
     1
102
RTVSPropertyOp10
 70
     1
102
RTVSPropertyOp11
 70
     1
102
RTVSPropertyOp12
 70
     1
102
RTVSPropertyOp13
 70
     1
102
RTVSPropertyOp14
 70
     1
102
RTVSPropertyOp15
 70
     1
102
RTVSPropertyOp16
 70
     1
102
RTVSPropertyOp17
 70
     1
102
RTVSPropertyOp18
 70
     1
102
RTVSPropertyOp19
 70
     1
102
RTVSPropertyOp20
 70
     1
102
RTVSPropertyOp21
 70
     1
102
RTVSPropertyOp22
 70
     1
102
RTVSPropertyOp23
 70
     1
102
RTVSPropertyOp24
 70
     1
102
RTVSPropertyOp25
 70
     1
102
RTVSPropertyOp26
 70
     1
102
RTVSPropertyOp27
 70
     1
  0
XRECORD
  5
2D9
102
{ACAD_REACTORS
330
2D8
102
}
330
2D8
100
AcDbXrecord
280
     1
102
RTVSPropertyOp0
 70
     1
102
RTVSPropertyOp1
 70
     1
102
RTVSPropertyOp2
 70
     1
102
RTVSPropertyOp3
 70
     1
102
RTVSPropertyOp4
 70
     1
102
RTVSPropertyOp5
 70
     1
102
RTVSPropertyOp6
 70
     1
102
RTVSPropertyOp7
 70
     1
102
RTVSPropertyOp8
 70
     1
102
RTVSPropertyOp9
 70
     1
102
RTVSPropertyOp10
 70
     1
102
RTVSPropertyOp11
 70
     1
102
RTVSPropertyOp12
 70
     1
102
RTVSPropertyOp13
 70
     1
102
RTVSPropertyOp14
 70
     1
102
RTVSPropertyOp15
 70
     1
102
RTVSPropertyOp16
 70
     1
102
RTVSPropertyOp17
 70
     1
102
RTVSPropertyOp18
 70
     1
102
RTVSPropertyOp19
 70
     1
102
RTVSPropertyOp20
 70
     1
102
RTVSPropertyOp21
 70
     1
102
RTVSPropertyOp22
 70
     1
102
RTVSPropertyOp23
 70
     1
102
RTVSPropertyOp24
 70
     1
102
RTVSPropertyOp25
 70
     1
102
RTVSPropertyOp26
 70
     1
102
RTVSPropertyOp27
 70
     1
  0
XRECORD
  5
2D7
102
{ACAD_REACTORS
330
2D6
102
}
330
2D6
100
AcDbXrecord
280
     1
102
RTVSPropertyOp0
 70
     1
102
RTVSPropertyOp1
 70
     1
102
RTVSPropertyOp2
 70
     1
102
RTVSPropertyOp3
 70
     1
102
RTVSPropertyOp4
 70
     1
102
RTVSPropertyOp5
 70
     1
102
RTVSPropertyOp6
 70
     1
102
RTVSPropertyOp7
 70
     1
102
RTVSPropertyOp8
 70
     1
102
RTVSPropertyOp9
 70
     1
102
RTVSPropertyOp10
 70
     1
102
RTVSPropertyOp11
 70
     1
102
RTVSPropertyOp12
 70
     1
102
RTVSPropertyOp13
 70
     1
102
RTVSPropertyOp14
 70
     1
102
RTVSPropertyOp15
 70
     1
102
RTVSPropertyOp16
 70
     1
102
RTVSPropertyOp17
 70
     1
102
RTVSPropertyOp18
 70
     1
102
RTVSPropertyOp19
 70
     1
102
RTVSPropertyOp20
 70
     1
102
RTVSPropertyOp21
 70
     1
102
RTVSPropertyOp22
 70
     1
102
RTVSPropertyOp23
 70
     1
102
RTVSPropertyOp24
 70
     1
102
RTVSPropertyOp25
 70
     1
102
RTVSPropertyOp26
 70
     1
102
RTVSPropertyOp27
 70
     1
  0
XRECORD
  5
2DB
102
{ACAD_REACTORS
330
2DA
102
}
330
2DA
100
AcDbXrecord
280
     1
102
RTVSPropertyOp0
 70
     1
102
RTVSPropertyOp1
 70
     1
102
RTVSPropertyOp2
 70
     1
102
RTVSPropertyOp3
 70
     1
102
RTVSPropertyOp4
 70
     1
102
RTVSPropertyOp5
 70
     1
102
RTVSPropertyOp6
 70
     1
102
RTVSPropertyOp7
 70
     1
102
RTVSPropertyOp8
 70
     1
102
RTVSPropertyOp9
 70
     1
102
RTVSPropertyOp10
 70
     1
102
RTVSPropertyOp11
 70
     1
102
RTVSPropertyOp12
 70
     1
102
RTVSPropertyOp13
 70
     1
102
RTVSPropertyOp14
 70
     1
102
RTVSPropertyOp15
 70
     1
102
RTVSPropertyOp16
 70
     1
102
RTVSPropertyOp17
 70
     1
102
RTVSPropertyOp18
 70
     1
102
RTVSPropertyOp19
 70
     1
102
RTVSPropertyOp20
 70
     1
102
RTVSPropertyOp21
 70
     1
102
RTVSPropertyOp22
 70
     1
102
RTVSPropertyOp23
 70
     1
102
RTVSPropertyOp24
 70
     1
102
RTVSPropertyOp25
 70
     1
102
RTVSPropertyOp26
 70
     1
102
RTVSPropertyOp27
 70
     1
  0
XRECORD
  5
2E3
102
{ACAD_REACTORS
330
2E2
102
}
330
2E2
100
AcDbXrecord
280
     1
102
RTVSPropertyOp0
 70
     1
102
RTVSPropertyOp1
 70
     1
102
RTVSPropertyOp2
 70
     1
102
RTVSPropertyOp3
 70
     1
102
RTVSPropertyOp4
 70
     1
102
RTVSPropertyOp5
 70
     1
102
RTVSPropertyOp6
 70
     1
102
RTVSPropertyOp7
 70
     1
102
RTVSPropertyOp8
 70
     1
102
RTVSPropertyOp9
 70
     1
102
RTVSPropertyOp10
 70
     1
102
RTVSPropertyOp11
 70
     1
102
RTVSPropertyOp12
 70
     1
102
RTVSPropertyOp13
 70
     1
102
RTVSPropertyOp14
 70
     1
102
RTVSPropertyOp15
 70
     1
102
RTVSPropertyOp16
 70
     1
102
RTVSPropertyOp17
 70
     1
102
RTVSPropertyOp18
 70
     1
102
RTVSPropertyOp19
 70
     1
102
RTVSPropertyOp20
 70
     1
102
RTVSPropertyOp21
 70
     1
102
RTVSPropertyOp22
 70
     1
102
RTVSPropertyOp23
 70
     1
102
RTVSPropertyOp24
 70
     1
102
RTVSPropertyOp25
 70
     1
102
RTVSPropertyOp26
 70
     1
102
RTVSPropertyOp27
 70
     1
  0
XRECORD
  5
2EB
102
{ACAD_REACTORS
330
2EA
102
}
330
2EA
100
AcDbXrecord
280
     1
102
RTVSPropertyOp0
 70
     1
102
RTVSPropertyOp1
 70
     1
102
RTVSPropertyOp2
 70
     1
102
RTVSPropertyOp3
 70
     1
102
RTVSPropertyOp4
 70
     1
102
RTVSPropertyOp5
 70
     1
102
RTVSPropertyOp6
 70
     1
102
RTVSPropertyOp7
 70
     1
102
RTVSPropertyOp8
 70
     1
102
RTVSPropertyOp9
 70
     1
102
RTVSPropertyOp10
 70
     1
102
RTVSPropertyOp11
 70
     1
102
RTVSPropertyOp12
 70
     1
102
RTVSPropertyOp13
 70
     1
102
RTVSPropertyOp14
 70
     1
102
RTVSPropertyOp15
 70
     1
102
RTVSPropertyOp16
 70
     1
102
RTVSPropertyOp17
 70
     1
102
RTVSPropertyOp18
 70
     1
102
RTVSPropertyOp19
 70
     1
102
RTVSPropertyOp20
 70
     1
102
RTVSPropertyOp21
 70
     1
102
RTVSPropertyOp22
 70
     1
102
RTVSPropertyOp23
 70
     1
102
RTVSPropertyOp24
 70
     1
102
RTVSPropertyOp25
 70
     1
102
RTVSPropertyOp26
 70
     1
102
RTVSPropertyOp27
 70
     1
  0
XRECORD
  5
2DF
102
{ACAD_REACTORS
330
2DE
102
}
330
2DE
100
AcDbXrecord
280
     1
102
RTVSPropertyOp0
 70
     1
102
RTVSPropertyOp1
 70
     1
102
RTVSPropertyOp2
 70
     1
102
RTVSPropertyOp3
 70
     1
102
RTVSPropertyOp4
 70
     1
102
RTVSPropertyOp5
 70
     1
102
RTVSPropertyOp6
 70
     1
102
RTVSPropertyOp7
 70
     1
102
RTVSPropertyOp8
 70
     1
102
RTVSPropertyOp9
 70
     1
102
RTVSPropertyOp10
 70
     1
102
RTVSPropertyOp11
 70
     1
102
RTVSPropertyOp12
 70
     1
102
RTVSPropertyOp13
 70
     1
102
RTVSPropertyOp14
 70
     1
102
RTVSPropertyOp15
 70
     1
102
RTVSPropertyOp16
 70
     1
102
RTVSPropertyOp17
 70
     1
102
RTVSPropertyOp18
 70
     1
102
RTVSPropertyOp19
 70
     1
102
RTVSPropertyOp20
 70
     1
102
RTVSPropertyOp21
 70
     1
102
RTVSPropertyOp22
 70
     1
102
RTVSPropertyOp23
 70
     1
102
RTVSPropertyOp24
 70
     1
102
RTVSPropertyOp25
 70
     1
102
RTVSPropertyOp26
 70
     1
102
RTVSPropertyOp27
 70
     1
  0
XRECORD
  5
2E1
102
{ACAD_REACTORS
330
2E0
102
}
330
2E0
100
AcDbXrecord
280
     1
102
RTVSPropertyOp0
 70
     1
102
RTVSPropertyOp1
 70
     1
102
RTVSPropertyOp2
 70
     1
102
RTVSPropertyOp3
 70
     1
102
RTVSPropertyOp4
 70
     1
102
RTVSPropertyOp5
 70
     1
102
RTVSPropertyOp6
 70
     1
102
RTVSPropertyOp7
 70
     1
102
RTVSPropertyOp8
 70
     1
102
RTVSPropertyOp9
 70
     1
102
RTVSPropertyOp10
 70
     1
102
RTVSPropertyOp11
 70
     1
102
RTVSPropertyOp12
 70
     1
102
RTVSPropertyOp13
 70
     1
102
RTVSPropertyOp14
 70
     1
102
RTVSPropertyOp15
 70
     1
102
RTVSPropertyOp16
 70
     1
102
RTVSPropertyOp17
 70
     1
102
RTVSPropertyOp18
 70
     1
102
RTVSPropertyOp19
 70
     1
102
RTVSPropertyOp20
 70
     1
102
RTVSPropertyOp21
 70
     1
102
RTVSPropertyOp22
 70
     1
102
RTVSPropertyOp23
 70
     1
102
RTVSPropertyOp24
 70
     1
102
RTVSPropertyOp25
 70
     1
102
RTVSPropertyOp26
 70
     1
102
RTVSPropertyOp27
 70
     1
  0
XRECORD
  5
2E9
102
{ACAD_REACTORS
330
2E8
102
}
330
2E8
100
AcDbXrecord
280
     1
102
RTVSPropertyOp0
 70
     1
102
RTVSPropertyOp1
 70
     1
102
RTVSPropertyOp2
 70
     1
102
RTVSPropertyOp3
 70
     1
102
RTVSPropertyOp4
 70
     1
102
RTVSPropertyOp5
 70
     1
102
RTVSPropertyOp6
 70
     1
102
RTVSPropertyOp7
 70
     1
102
RTVSPropertyOp8
 70
     1
102
RTVSPropertyOp9
 70
     1
102
RTVSPropertyOp10
 70
     1
102
RTVSPropertyOp11
 70
     1
102
RTVSPropertyOp12
 70
     1
102
RTVSPropertyOp13
 70
     1
102
RTVSPropertyOp14
 70
     1
102
RTVSPropertyOp15
 70
     1
102
RTVSPropertyOp16
 70
     1
102
RTVSPropertyOp17
 70
     1
102
RTVSPropertyOp18
 70
     1
102
RTVSPropertyOp19
 70
     1
102
RTVSPropertyOp20
 70
     1
102
RTVSPropertyOp21
 70
     1
102
RTVSPropertyOp22
 70
     1
102
RTVSPropertyOp23
 70
     1
102
RTVSPropertyOp24
 70
     1
102
RTVSPropertyOp25
 70
     1
102
RTVSPropertyOp26
 70
     1
102
RTVSPropertyOp27
 70
     1
  0
XRECORD
  5
2CD
102
{ACAD_REACTORS
330
2CC
102
}
330
2CC
100
AcDbXrecord
280
     1
102
RTVSPropertyOp0
 70
     1
102
RTVSPropertyOp1
 70
     1
102
RTVSPropertyOp2
 70
     1
102
RTVSPropertyOp3
 70
     1
102
RTVSPropertyOp4
 70
     1
102
RTVSPropertyOp5
 70
     1
102
RTVSPropertyOp6
 70
     1
102
RTVSPropertyOp7
 70
     1
102
RTVSPropertyOp8
 70
     1
102
RTVSPropertyOp9
 70
     1
102
RTVSPropertyOp10
 70
     1
102
RTVSPropertyOp11
 70
     1
102
RTVSPropertyOp12
 70
     1
102
RTVSPropertyOp13
 70
     1
102
RTVSPropertyOp14
 70
     1
102
RTVSPropertyOp15
 70
     1
102
RTVSPropertyOp16
 70
     1
102
RTVSPropertyOp17
 70
     1
102
RTVSPropertyOp18
 70
     1
102
RTVSPropertyOp19
 70
     1
102
RTVSPropertyOp20
 70
     1
102
RTVSPropertyOp21
 70
     1
102
RTVSPropertyOp22
 70
     1
102
RTVSPropertyOp23
 70
     1
102
RTVSPropertyOp24
 70
     1
102
RTVSPropertyOp25
 70
     1
102
RTVSPropertyOp26
 70
     1
102
RTVSPropertyOp27
 70
     1
  0
XRECORD
  5
2CF
102
{ACAD_REACTORS
330
2CE
102
}
330
2CE
100
AcDbXrecord
280
     1
102
RTVSPropertyOp0
 70
     1
102
RTVSPropertyOp1
 70
     1
102
RTVSPropertyOp2
 70
     1
102
RTVSPropertyOp3
 70
     1
102
RTVSPropertyOp4
 70
     1
102
RTVSPropertyOp5
 70
     1
102
RTVSPropertyOp6
 70
     1
102
RTVSPropertyOp7
 70
     1
102
RTVSPropertyOp8
 70
     1
102
RTVSPropertyOp9
 70
     1
102
RTVSPropertyOp10
 70
     1
102
RTVSPropertyOp11
 70
     1
102
RTVSPropertyOp12
 70
     1
102
RTVSPropertyOp13
 70
     1
102
RTVSPropertyOp14
 70
     1
102
RTVSPropertyOp15
 70
     1
102
RTVSPropertyOp16
 70
     1
102
RTVSPropertyOp17
 70
     1
102
RTVSPropertyOp18
 70
     1
102
RTVSPropertyOp19
 70
     1
102
RTVSPropertyOp20
 70
     1
102
RTVSPropertyOp21
 70
     1
102
RTVSPropertyOp22
 70
     1
102
RTVSPropertyOp23
 70
     1
102
RTVSPropertyOp24
 70
     1
102
RTVSPropertyOp25
 70
     1
102
RTVSPropertyOp26
 70
     1
102
RTVSPropertyOp27
 70
     1
  0
XRECORD
  5
2D1
102
{ACAD_REACTORS
330
2D0
102
}
330
2D0
100
AcDbXrecord
280
     1
102
RTVSPropertyOp0
 70
     1
102
RTVSPropertyOp1
 70
     1
102
RTVSPropertyOp2
 70
     1
102
RTVSPropertyOp3
 70
     1
102
RTVSPropertyOp4
 70
     1
102
RTVSPropertyOp5
 70
     1
102
RTVSPropertyOp6
 70
     1
102
RTVSPropertyOp7
 70
     1
102
RTVSPropertyOp8
 70
     1
102
RTVSPropertyOp9
 70
     1
102
RTVSPropertyOp10
 70
     1
102
RTVSPropertyOp11
 70
     1
102
RTVSPropertyOp12
 70
     1
102
RTVSPropertyOp13
 70
     1
102
RTVSPropertyOp14
 70
     1
102
RTVSPropertyOp15
 70
     1
102
RTVSPropertyOp16
 70
     1
102
RTVSPropertyOp17
 70
     1
102
RTVSPropertyOp18
 70
     1
102
RTVSPropertyOp19
 70
     1
102
RTVSPropertyOp20
 70
     1
102
RTVSPropertyOp21
 70
     1
102
RTVSPropertyOp22
 70
     1
102
RTVSPropertyOp23
 70
     1
102
RTVSPropertyOp24
 70
     1
102
RTVSPropertyOp25
 70
     1
102
RTVSPropertyOp26
 70
     1
102
RTVSPropertyOp27
 70
     1
  0
XRECORD
  5
2D3
102
{ACAD_REACTORS
330
2D2
102
}
330
2D2
100
AcDbXrecord
280
     1
102
RTVSPropertyOp0
 70
     1
102
RTVSPropertyOp1
 70
     1
102
RTVSPropertyOp2
 70
     1
102
RTVSPropertyOp3
 70
     1
102
RTVSPropertyOp4
 70
     1
102
RTVSPropertyOp5
 70
     1
102
RTVSPropertyOp6
 70
     1
102
RTVSPropertyOp7
 70
     1
102
RTVSPropertyOp8
 70
     1
102
RTVSPropertyOp9
 70
     1
102
RTVSPropertyOp10
 70
     1
102
RTVSPropertyOp11
 70
     1
102
RTVSPropertyOp12
 70
     1
102
RTVSPropertyOp13
 70
     1
102
RTVSPropertyOp14
 70
     1
102
RTVSPropertyOp15
 70
     1
102
RTVSPropertyOp16
 70
     1
102
RTVSPropertyOp17
 70
     1
102
RTVSPropertyOp18
 70
     1
102
RTVSPropertyOp19
 70
     1
102
RTVSPropertyOp20
 70
     1
102
RTVSPropertyOp21
 70
     1
102
RTVSPropertyOp22
 70
     1
102
RTVSPropertyOp23
 70
     1
102
RTVSPropertyOp24
 70
     1
102
RTVSPropertyOp25
 70
     1
102
RTVSPropertyOp26
 70
     1
102
RTVSPropertyOp27
 70
     1
  0
XRECORD
  5
2E7
102
{ACAD_REACTORS
330
2E6
102
}
330
2E6
100
AcDbXrecord
280
     1
102
RTVSPropertyOp0
 70
     1
102
RTVSPropertyOp1
 70
     1
102
RTVSPropertyOp2
 70
     1
102
RTVSPropertyOp3
 70
     1
102
RTVSPropertyOp4
 70
     1
102
RTVSPropertyOp5
 70
     1
102
RTVSPropertyOp6
 70
     1
102
RTVSPropertyOp7
 70
     1
102
RTVSPropertyOp8
 70
     1
102
RTVSPropertyOp9
 70
     1
102
RTVSPropertyOp10
 70
     1
102
RTVSPropertyOp11
 70
     1
102
RTVSPropertyOp12
 70
     1
102
RTVSPropertyOp13
 70
     1
102
RTVSPropertyOp14
 70
     1
102
RTVSPropertyOp15
 70
     1
102
RTVSPropertyOp16
 70
     1
102
RTVSPropertyOp17
 70
     1
102
RTVSPropertyOp18
 70
     1
102
RTVSPropertyOp19
 70
     1
102
RTVSPropertyOp20
 70
     1
102
RTVSPropertyOp21
 70
     1
102
RTVSPropertyOp22
 70
     1
102
RTVSPropertyOp23
 70
     1
102
RTVSPropertyOp24
 70
     1
102
RTVSPropertyOp25
 70
     1
102
RTVSPropertyOp26
 70
     1
102
RTVSPropertyOp27
 70
     1
  0
XRECORD
  5
2DD
102
{ACAD_REACTORS
330
2DC
102
}
330
2DC
100
AcDbXrecord
280
     1
102
RTVSPropertyOp0
 70
     1
102
RTVSPropertyOp1
 70
     1
102
RTVSPropertyOp2
 70
     1
102
RTVSPropertyOp3
 70
     1
102
RTVSPropertyOp4
 70
     1
102
RTVSPropertyOp5
 70
     1
102
RTVSPropertyOp6
 70
     1
102
RTVSPropertyOp7
 70
     1
102
RTVSPropertyOp8
 70
     1
102
RTVSPropertyOp9
 70
     1
102
RTVSPropertyOp10
 70
     1
102
RTVSPropertyOp11
 70
     1
102
RTVSPropertyOp12
 70
     1
102
RTVSPropertyOp13
 70
     1
102
RTVSPropertyOp14
 70
     1
102
RTVSPropertyOp15
 70
     1
102
RTVSPropertyOp16
 70
     1
102
RTVSPropertyOp17
 70
     1
102
RTVSPropertyOp18
 70
     1
102
RTVSPropertyOp19
 70
     1
102
RTVSPropertyOp20
 70
     1
102
RTVSPropertyOp21
 70
     1
102
RTVSPropertyOp22
 70
     1
102
RTVSPropertyOp23
 70
     1
102
RTVSPropertyOp24
 70
     1
102
RTVSPropertyOp25
 70
     1
102
RTVSPropertyOp26
 70
     1
102
RTVSPropertyOp27
 70
     1
  0
XRECORD
  5
2E5
102
{ACAD_REACTORS
330
2E4
102
}
330
2E4
100
AcDbXrecord
280
     1
102
RTVSPropertyOp0
 70
     1
102
RTVSPropertyOp1
 70
     1
102
RTVSPropertyOp2
 70
     1
102
RTVSPropertyOp3
 70
     1
102
RTVSPropertyOp4
 70
     1
102
RTVSPropertyOp5
 70
     1
102
RTVSPropertyOp6
 70
     1
102
RTVSPropertyOp7
 70
     1
102
RTVSPropertyOp8
 70
     1
102
RTVSPropertyOp9
 70
     1
102
RTVSPropertyOp10
 70
     1
102
RTVSPropertyOp11
 70
     1
102
RTVSPropertyOp12
 70
     1
102
RTVSPropertyOp13
 70
     1
102
RTVSPropertyOp14
 70
     1
102
RTVSPropertyOp15
 70
     1
102
RTVSPropertyOp16
 70
     1
102
RTVSPropertyOp17
 70
     1
102
RTVSPropertyOp18
 70
     1
102
RTVSPropertyOp19
 70
     1
102
RTVSPropertyOp20
 70
     1
102
RTVSPropertyOp21
 70
     1
102
RTVSPropertyOp22
 70
     1
102
RTVSPropertyOp23
 70
     1
102
RTVSPropertyOp24
 70
     1
102
RTVSPropertyOp25
 70
     1
102
RTVSPropertyOp26
 70
     1
102
RTVSPropertyOp27
 70
     1
  0
ENDSEC
  0
EOF
